Subcategories

Leonard Bernstein - A quiet place - Leonard Bernstein

Posted By: Boma
Leonard Bernstein - A quiet place - Leonard Bernstein

Leonard Bernstein - A quiet place - Leonard Bernstein
Exact Audio Copy (EAC) | APE Monkey's Audio 4.06 | CUE | LOG | COVERS | WinRAR | RS | Released: 1987 | 2 CD 538 MB

A Quiet Place is an American opera in three acts, with music by Leonard Bernstein to a libretto by Stephen Wadsworth. The work is a sequel to Bernstein's earlier short opera Trouble in Tahiti. In its initial form, A Quiet Place was in one act, and followed Trouble in Tahiti after the intermission. The first performance was on 17 June 1983 by the Houston Grand Opera.

Synopsis

Prologue. A ghostly chorus witnesses Dinah's death in a car accident. The funeral director asks Dinah's friends to describe her two children, Dede and Junior. Sam, the widower, has never met Dede's husband, Francois. Junior arrives late, interrupting the reading. Sam is furious. After a brief flashback of the children growing up, Junior curses his father and begin to undress. There's a bit of commotion and someone knocks the coffin. Postlude. Scene 1. The Master Bedroom in Sam's House Sam reads Dinah's diary and learns that she was sick of her marriage. Although he is disappointed, he misses her. Scene 2. Sam and Dinah's House, Young Sam's Office, Office of Dinah's Psychiatrist, A Street. In a flashback: Sam and Dinah fight. Dinah reminds Sam that it's Junior's play day, but Sam has an appointment at the gym. Dinah asks for money to pay her analyst. Sam goes to his office. Dinah tells her analyst about a dream in which she is trapped in a garden. Sam and Dinah see each other on the street. To avoid having lunch together, both lie and say they have appointments. Scene 3. Two Bedrooms in Sam's house. Back in the present: Sam and Dede go through Dinah's things. Next door, Francois chides Junior for his behavior at the funeral parlor. Junior caresses Francois, but Francois says that their days as lovers are over. Junior torments Francois by telling him he had sex with Dede. Dede changes into one of her mother's dresses. Junior slips into the nonsense mumbles that characterize his bouts of mental illness. Francoise puts him to bed and goes to Dede. Sam looks in on his sleeping son. Scene 4. A Gym, a Movie Theater, a Hat Shop, a Bus Stop, the House Flashback: The young Sam revels in his victory in the handball match. Dinah is at first skeptical, then carried away by the south-sea fantasy movie "Trouble in Tahiti." Later that evening, Sam wants to have an intimate conversation with her but cannot. Instead he takes her to "Trouble in Tahiti." Prelude Junior and Dede have breakfast in their mother's garden. They play games from their childhood. In a flashback, Junior introduces his boyfriend, Francois, to Dede. The old Sam and Francois join Junior and Dede's game of tag. Sam welcomes Francois to the family and reads them portion of Dinah's diary in which she says how much she loves her family. To Sam's delight the children decide to stay with him for another week but end up fighting over the sleeping arrangements. Peace descends when Junior tosses the pages of Dinah's diary into the air. Junior and Sam, Dede and Francois, are reconciled
From: Wikipeda

Exact Audio Copy V0.99 prebeta 5 from 4. May 2009

Отчёт EAC об извлечении, выполненном 29. мая 2009, 11:04

Ludgin, Morgan, Brandstetter / Bernstein: A Quiet Place (Bernstein) CD1

Дисковод: HL-DT-STDVD-RAM GSA-H55N Adapter: 4 ID: 0

Режим чтения : Достоверность
Использование точного потока : Да
Отключение кэша аудио : Нет
Использование указателей C2 : Нет

Коррекция смещения при чтении : 102
Способность читать области Lead-in и Lead-out : Нет
Заполнение пропущенных сэмплов тишиной : Да
Удаление блоков с тишиной в начале и конце : Нет
При вычислениях CRC использовались нулевые сэмплы : Нет
Интерфейс : Встроенный Win32-интерфейс для Win NT/2000

Выходной формат : Внутренние WAV-операции
Формат сэмплов : 44.100 Гц; 16 бит; стерео


TOC извлечённого CD

Трек | Старт | Длительность | Начальный сектор | Конечный сектор
––––––––––––––––––––––––––––––––––-
1 | 0:00.33 | 4:06.50 | 33 | 18532
2 | 4:07.08 | 17:57.05 | 18533 | 99312
3 | 22:04.13 | 6:55.72 | 99313 | 130509
4 | 29:00.10 | 4:46.55 | 130510 | 152014
5 | 33:46.65 | 3:44.55 | 152015 | 168869
6 | 37:31.45 | 2:33.60 | 168870 | 180404
7 | 40:05.30 | 5:00.28 | 180405 | 202932
8 | 45:05.58 | 2:48.15 | 202933 | 215547
9 | 47:53.73 | 3:31.62 | 215548 | 231434
10 | 51:25.60 | 5:55.25 | 231435 | 258084
11 | 57:21.10 | 3:02.33 | 258085 | 271767
12 | 60:23.43 | 8:08.52 | 271768 | 308419
13 | 68:32.20 | 6:25.13 | 308420 | 337307


Характеристики диапазона извлечения и сообщения об ошибках

Выбранный диапазон

Имя файла E:\Bernstein A Quiet Place (Bernstein) CD1.wav

Пиковый уровень 91.3 %
Качество диапазона 99.9 %
CRC копии 6E017FE7
Копирование… OK

Ошибок не произошло



Конец отчёта

Exact Audio Copy V0.99 prebeta 5 from 4. May 2009

Отчёт EAC об извлечении, выполненном 29. мая 2009, 11:22

Ludgin, Morgan, Brandstetter / Bernstein - A Quiet Place (Bernstein) CD2

Дисковод: HL-DT-STDVD-RAM GSA-H55N Adapter: 4 ID: 0

Режим чтения : Достоверность
Использование точного потока : Да
Отключение кэша аудио : Нет
Использование указателей C2 : Нет

Коррекция смещения при чтении : 102
Способность читать области Lead-in и Lead-out : Нет
Заполнение пропущенных сэмплов тишиной : Да
Удаление блоков с тишиной в начале и конце : Нет
При вычислениях CRC использовались нулевые сэмплы : Нет
Интерфейс : Встроенный Win32-интерфейс для Win NT/2000

Выходной формат : Внутренние WAV-операции
Формат сэмплов : 44.100 Гц; 16 бит; стерео


TOC извлечённого CD

Трек | Старт | Длительность | Начальный сектор | Конечный сектор
––––––––––––––––––––––––––––––––––-
1 | 0:00.33 | 5:43.12 | 33 | 25769
2 | 5:43.45 | 2:13.45 | 25770 | 35789
3 | 7:57.15 | 4:49.48 | 35790 | 57512
4 | 12:46.63 | 6:58.47 | 57513 | 88909
5 | 19:45.35 | 1:58.23 | 88910 | 97782
6 | 21:43.58 | 4:02.35 | 97783 | 115967
7 | 25:46.18 | 5:00.22 | 115968 | 138489
8 | 30:46.40 | 8:18.18 | 138490 | 175857
9 | 39:04.58 | 5:50.47 | 175858 | 202154
10 | 44:55.30 | 3:57.03 | 202155 | 219932
11 | 48:52.33 | 3:50.72 | 219933 | 237254
12 | 52:43.30 | 5:34.25 | 237255 | 262329
13 | 58:17.55 | 7:31.03 | 262330 | 296157
14 | 65:48.58 | 8:20.22 | 296158 | 333679


Характеристики диапазона извлечения и сообщения об ошибках

Выбранный диапазон

Имя файла E:\Bernstein - A Quiet Place (Bernstein) CD2.wav

Пиковый уровень 90.9 %
Качество диапазона 99.9 %
CRC копии 63204EAB
Копирование… OK

Ошибок не произошло

Конец отчёта

The Recording Deutsche Grammophon 419 761-2: Beverly Morgan, Wendy White, Peter Kazaras, Chester Ludgin, John Brandsetter, Edward Crafts; Jean Kraft; Austrian Radio Symphony Orchestra; Leonard Bernstein, conductor
Leonard Bernstein - A quiet place - Leonard Bernstein