Subcategories

The Ramones - Subterranean Jungle (1983/2002) [Expanded & Remastered Reissue] FULLY RENEWED

Posted By: Rehabilly
The Ramones - Subterranean Jungle (1983/2002) [Expanded & Remastered Reissue] FULLY RENEWED

Ramones - Subterranean Jungle (1983/2002)
EAC | FLAC+CUE+LOG or MP3 CBR 320 | 53:48 min | 394 or 123 MB
Rhino Remaster 2002. Deluxe Expanded Edition

Producers Ritchie Cordell and Glen Kolotkin were the heads of the edgy power pop and punk label Bomp!, so they steered the Ramones back toward the '60s pop infatuation that provided the foundation for their early records. It's a strategy that pays off well – for the most part, the group's originals are so punchy and catchy that they make the pair of covers superfluous. Comprised of a set of unabashedly hook-laden songs and driven by more subtle rhythms, Subterranean Jungle may not be a punk record in the strictest sense of the word, yet the Ramones haven't sounded quite as alive in a long, long while.

Tracklist:

01. Little Bit O' Soul
02. I Need Your Love
03. Outsider
04. What'd Ya Do
05. Highest Trails Above
06. Somebody Like Me
07. Psycho Therapy
08. Time Has Come Today
09. My-My Kind Of Girl
10. In The Park
11. Time Bomb
12. Everytime I Eat Vegetables It Makes Me Think Of You
13. Indian Giver [Original Mix]
14. New Girl In Town [Previously Unissued]
15. No One To Blame [Demo - Previously Unissued]
16. Roots Of Hatred [Demo - Previously Unissued]
17. Bumming Along [Demo - Previously Unissued]
18. Unhappy Girl [Demo - Previously Unissued]
19. My-My Kind Of Girl [Demo - Previously Unissued]

Exact Audio Copy V1.0 beta 1 from 15. November 2010

EAC extraction logfile from 6. November 2013, 14:55

Ramones / Subterranean Jungle [RM 2002]

Used drive : ASUS DRW-1814BL Adapter: 2 ID: 0

Read mode : Secure
Utilize accurate stream : Yes
Defeat audio cache : Yes
Make use of C2 pointers : No

Read offset correction : 6
Overread into Lead-In and Lead-Out : No
Fill up missing offset samples with silence : Yes
Delete leading and trailing silent blocks : No
Null samples used in CRC calculations : Yes
Used interface : Installed external ASPI interface

Used output format : Internal WAV Routines
Sample format : 44.100 Hz; 16 Bit; Stereo


TOC of the extracted CD

Track | Start | Length | Start sector | End sector
––––––––––––––––––––––––––––-
1 | 0:00.00 | 2:43.07 | 0 | 12231
2 | 2:43.07 | 3:08.25 | 12232 | 26356
3 | 5:51.32 | 2:10.43 | 26357 | 36149
4 | 8:02.00 | 2:23.62 | 36150 | 46936
5 | 10:25.62 | 2:09.40 | 46937 | 56651
6 | 12:35.27 | 2:32.25 | 56652 | 68076
7 | 15:07.52 | 2:35.35 | 68077 | 79736
8 | 17:43.12 | 4:24.70 | 79737 | 99606
9 | 22:08.07 | 3:31.63 | 99607 | 115494
10 | 25:39.70 | 2:36.67 | 115495 | 127261
11 | 28:16.62 | 2:08.38 | 127262 | 136899
12 | 30:25.25 | 3:12.05 | 136900 | 151304
13 | 33:37.30 | 2:45.50 | 151305 | 163729
14 | 36:23.05 | 3:33.27 | 163730 | 179731
15 | 39:56.32 | 2:24.18 | 179732 | 190549
16 | 42:20.50 | 3:36.55 | 190550 | 206804
17 | 45:57.30 | 2:20.02 | 206805 | 217306
18 | 48:17.32 | 2:20.00 | 217307 | 227806
19 | 50:37.32 | 3:10.25 | 227807 | 242081


Range status and errors

Selected range

Filename C:\_AvaxHome.ru__Rehabilly\1983- Subterranean Jungle [Expanded & Remastered 2002]\Ramones - Subterranean Jungle (R2-78157).wav

Peak level 98.5 %
Extraction speed 0.5 X
Range quality 100.0 %
Test CRC 586DBC52
Copy CRC 586DBC52
Copy OK

No errors occurred


AccurateRip summary

Track 1 accurately ripped (confidence 19) [C79CAFA1]
Track 2 accurately ripped (confidence 19) [82AF99BB]
Track 3 accurately ripped (confidence 19) [CD0AE134]
Track 4 accurately ripped (confidence 19) [EB564B19]
Track 5 accurately ripped (confidence 19) [6D7B2F76]
Track 6 accurately ripped (confidence 19) [18026F4B]
Track 7 accurately ripped (confidence 19) [938EDAF6]
Track 8 accurately ripped (confidence 19) [AB0DBCA8]
Track 9 accurately ripped (confidence 19) [D19BA877]
Track 10 accurately ripped (confidence 19) [4087587E]
Track 11 accurately ripped (confidence 19) [81979186]
Track 12 accurately ripped (confidence 19) [4A5230E0]
Track 13 accurately ripped (confidence 19) [1EC71215]
Track 14 accurately ripped (confidence 19) [D690E805]
Track 15 accurately ripped (confidence 18) [E8571510]
Track 16 accurately ripped (confidence 18) [2A5EF27C]
Track 17 accurately ripped (confidence 19) [ADEAFBA5]
Track 18 accurately ripped (confidence 19) [82003FDB]
Track 19 accurately ripped (confidence 19) [DC93620D]

All tracks accurately ripped

End of status report

==== Log checksum EB60E224FB50A3CAA9416B455FC72472510DAD814B589D9C72DDD26D6601E38A ====


Original Album Produced by Ritchie Cordell & Glenn Kolotkin
Recorded at Kingdom Sound, Syosset, Long Island, NY (December 1982)
Reissue Produced for Release by Bill Inglot & Gary Stewart
Remastered by Dan Hersch and Bill Inglot at Digiprep.

• Joey Ramone - lead vocals
• Johnny Ramone - guitar
• Dee Dee Ramone - bass, vocals
• Marky Ramone - drums

additional musicians:
- Walter Lure: guitar
- Billy Rogers: drums on "8"

Original Release Date: February 28, 1983
Re-Release Date: August 20, 2002
Format: Original Recordings Remastered
Label: Warner Archives/Rhino Entertainment
Catalog No.: R2 78157
The Right choice*
http://filepost.com/files/7788c453/RAM8302SJ975F.rar

all covers.png (153 MB)
http://filepost.com/files/5ac4mf6a/RAM8302SJ498C.rar

lossy.mp3
http://filepost.com/files/c14a536f/RAM8302SJ20G.rar


Original CD -> EAC Image, embedded cuesheet & more, foobar2000 ready, etc.
(all CUEs, LOGs and other technical info includes in the internal "CD_Support" archive)


_______________________________