Subcategories

Randi Tytingvåg - Red (2009)

Posted By: Domestos
Randi Tytingvåg - Red (2009)

Randi Tytingvåg - Red (2009)
EAC Rip | FLAC (image+.cue, log) ~ 260.34 Mb | 49:15 | Scans included
Vocal Jazz | Country: Norway | Label: Ozella - OZ 026 CD

Whoever perceives the colour red to be too bright and flashy will be whistling another tune after hearing Randi Tytingvåg’s album ‘Red’. The Norwegian singer/songwriter sets listeners aglow with her new songs. Her music sparkles and the lyrics are full of poetic lightness. The musical wonderland of Norway has, thanks to Randi Tytingvåg, a new voice – one that sails to the far reaches of the universe.

Track List:
1 Red Or Dead 4:32
2 Quiet Noise 3:12
3 My Heart Belongs To Daddy 3:13
4 Queen & King 3:49
5 Why 5:17
6 Mr. Barn 4:40
7 Song For Alice 4:37
8 Cohesion 5:08
9 Big In China 4:02
10 How Can You Know? 4:53
11 A Trip To The Moon 5:28

Randi Tytingvåg - Red (2009)

Exact Audio Copy V0.99 prebeta 5 from 4. May 2009

EAC extraction logfile from 18. April 2011, 10:18

Randi Tytingvag / Red

Used drive : Optiarc DVD RW AD-7200A Adapter: 2 ID: 0

Read mode : Secure
Utilize accurate stream : Yes
Defeat audio cache : Yes
Make use of C2 pointers : No

Read offset correction : 48
Overread into Lead-In and Lead-Out : No
Fill up missing offset samples with silence : Yes
Delete leading and trailing silent blocks : No
Null samples used in CRC calculations : Yes
Used interface : Native Win32 interface for Win NT & 2000

Used output format : User Defined Encoder
Selected bitrate : 768 kBit/s
Quality : High
Add ID3 tag : No
Command line compressor : D:\Program Files\Exact Audio Copy\FLAC\FLAC.EXE
Additional command line options : -8 -V %s


TOC of the extracted CD

Track | Start | Length | Start sector | End sector
––––––––––––––––––––––––––––-
1 | 0:00.00 | 4:32.45 | 0 | 20444
2 | 4:32.45 | 3:14.15 | 20445 | 35009
3 | 7:46.60 | 3:16.52 | 35010 | 49761
4 | 11:03.37 | 3:49.33 | 49762 | 66969
5 | 14:52.70 | 5:17.38 | 66970 | 90782
6 | 20:10.33 | 4:42.55 | 90783 | 111987
7 | 24:53.13 | 4:41.21 | 111988 | 133083
8 | 29:34.34 | 5:11.40 | 133084 | 156448
9 | 34:45.74 | 4:04.18 | 156449 | 174766
10 | 38:50.17 | 4:57.15 | 174767 | 197056
11 | 43:47.32 | 5:28.25 | 197057 | 221681


Range status and errors

Selected range

Filename C:\Users\Igor\Desktop\RED\Randi Tytingvag - Red.wav

Peak level 94.4 %
Range quality 99.9 %
Copy CRC 3B0FA5E5
Copy OK

No errors occurred


AccurateRip summary

Track 1 accurately ripped (confidence 13) [F52A3F4F]
Track 2 accurately ripped (confidence 13) [BBC9D1DE]
Track 3 accurately ripped (confidence 13) [F9BA07E8]
Track 4 accurately ripped (confidence 13) [CDD5E52F]
Track 5 accurately ripped (confidence 13) [4EFEB01E]
Track 6 accurately ripped (confidence 13) [65A4F292]
Track 7 accurately ripped (confidence 13) [332ADE62]
Track 8 accurately ripped (confidence 13) [E0DE3AA7]
Track 9 accurately ripped (confidence 13) [31231F6F]
Track 10 accurately ripped (confidence 13) [BB0F650B]
Track 11 accurately ripped (confidence 13) [69F0A0CE]

All tracks accurately ripped

End of status report

All thanks go to the BTDigg

More Music in My Blog
Follow My RSS Channel