Subcategories

Ray Bryant - Alone At Montreux

Posted By: odoacer
Ray Bryant - Alone At Montreux

Ray Bryant - Alone At Montreux
JAZZ | EAC rip | APE(IMAGE+CUE+LOG) | COVERS | 286Mb
Ray Bryant - solo piano


1. Gotta Travel On
2. Blues #3/Willow Weep For Me
3. Cubano Chant
4. Rockin' Chair
5. After Hours
6. Slow Freight
7. Greensleeves
8. Little Suzie
9. Until It's Time For You To Go
10. Blues #2
11. Liebestraum Boogie

By Jim Santella
A little more than a year ago, Jack Nicholson and Helen Hunt won Academy Awards for their roles in the film As Good As It Gets. In one memorable scene, Nicholson turns to the male costar, an artist, and remarks, "If that did it for me I’d be the luckiest guy in the world" (or words to that effect). Ray Bryant’s "After Hours" and "Slow Freight" do that for me. Deep rumbling bass notes, a full orchestral sound with gospel and blues sensibilities, melodies that at once sound like old friends, and syncopated left-hand figures to keep you on the edge of your seat; this is what Bryant serves up when he sits down at the piano.
Recorded in 1972, live at the Montreux Jazz Festival before a large and appreciative audience, Alone At Montreux was out-of-print and not available on compact disc. The album includes Bryant’s voice, as he announces the selections. Athttp://www.murraystreet.com/bryant2.htm is a 1997 transcript from Jazz At Lincoln Center with host Ed Bradley. Pianist Tommy Flanagan and trumpeter Harry "Sweets" Edison" were Bradley’s guests that night as the show offered a close-up look at pianist Ray Bryant and his career.
From Bryant’s hits "Little Susie" and "Cubano Chant" to traditional items like "Greensleeves" and "Gotta Travel On," the album features solo piano that is at once soulful, pleasant, and elaborate. Several definitive blues numbers anchor the session, while a blazing fast "Liebestraum Boogie" serves as the final encore. Bryant’s magnetic solo piano performance draws you in and keeps you there, awash in an intangible thread that pervades his music and lets you feel as you listen.

Exact Audio Copy V0.99 prebeta 4 from 23. January 2008

EAC extraction logfile from 4. May 2009, 0:29

Bryant Ray / Alone At Montreux

Used drive : TEAC DV-W518GM Adapter: 3 ID: 1

Read mode : Secure
Utilize accurate stream : Yes
Defeat audio cache : Yes
Make use of C2 pointers : No

Read offset correction : 6
Overread into Lead-In and Lead-Out : No
Fill up missing offset samples with silence : Yes
Delete leading and trailing silent blocks : No
Null samples used in CRC calculations : Yes
Used interface : Installed external ASPI interface

Used output format : Monkey's Audio Lossless Encoder
Selected bitrate : Normal Lossless Compression
Quality : High
Add ID3 tag : No
Command line compressor : C:\Program Files\Monkey's Audio\MAC.exe
Additional command line options : -v


TOC of the extracted CD

Track | Start | Length | Start sector | End sector
––––––––––––––––––––––––––––-
1 | 0:00.00 | 5:07.42 | 0 | 23066
2 | 5:07.42 | 7:00.25 | 23067 | 54591
3 | 12:07.67 | 5:03.03 | 54592 | 77319
4 | 17:10.70 | 5:55.57 | 77320 | 104001
5 | 23:06.52 | 3:59.65 | 104002 | 121991
6 | 27:06.42 | 5:36.05 | 121992 | 147196
7 | 32:42.47 | 2:28.23 | 147197 | 158319
8 | 35:10.70 | 3:20.00 | 158320 | 173319
9 | 38:30.70 | 3:52.52 | 173320 | 190771
10 | 42:23.47 | 4:33.50 | 190772 | 211296
11 | 46:57.22 | 3:43.18 | 211297 | 228039


Range status and errors

Selected range

Filename C:\Documents and Settings\User\My Documents\My Music\ОБРАЗЫ\Bryant Ray - Alone At Montreux.wav

Peak level 98.8 %
Range quality 100.0 %
Test CRC 8E2A81F3
Copy CRC 8E2A81F3
Copy OK

No errors occurred


AccurateRip summary

Track 1 not present in database
Track 2 not present in database
Track 3 not present in database
Track 4 not present in database
Track 5 not present in database
Track 6 not present in database
Track 7 not present in database
Track 8 not present in database
Track 9 not present in database
Track 10 not present in database
Track 11 not present in database

None of the tracks are present in the AccurateRip database

End of status report


http://narod.ru/disk/8319359000/RBaam.part1.rar.html
http://narod.ru/disk/8319668000/RBaam.part2.rar.html
http://narod.ru/disk/8319907000/RBaam.part3.rar.html
http://narod.ru/disk/8334680000/RBaamScans.rar.html

http://rapidshare.com/files/229016945/RBaam.part1.rar
http://rapidshare.com/files/229017741/RBaam.part2.rar
http://rapidshare.com/files/229017236/RBaam.part3.rar
http://rapidshare.com/files/229018692/RBaamScans.rar


Pasha,are you blinde?