Subcategories

Ray Bryant - Up Above the Rock (1968) {2014 Japan Rare Groove Funk Best Collection 1000 Series UCCU-90071}

Posted By: ruskaval
Ray Bryant - Up Above the Rock (1968) {2014 Japan Rare Groove Funk Best Collection 1000 Series UCCU-90071}

Ray Bryant - Up Above the Rock (1968) {2014 Japan Rare Groove Funk Best Collection 1000 Series UCCU-90071}
EAC rip (secure mode) | FLAC (image)+CUE+LOG -> 219 Mb | MP3 @320 -> 84 Mb
Full Artwork @ 300 dpi (png) -> 28 Mb | 5% repair rar
© 1968, 2014 Cadet / Verve / Universal Music Japan | UCCU-90071
Jazz / Jazz Funk / Soul Jazz / Piano

Reissue with the latest remastering. One of the hardest, heaviest albums that Ray Bryant ever cut – even on the ballads – a monster little record that grabs you from the very first note! Ray did the arrangements for this one himself – working with his core trio that featured Ron Carter on bass and Grady Tate on drums, and adding in a twin-trumpet frontline that cooks the groove over the top with a really righteous sound!

The rhythms are complicated, yet really funky – and the album's almost worth it alone for the title track "Up Above The Rock", which will forever be remembered for its monster break! The whole thing's great, though – and Ray follows up the leadoff cooker with other great tunes that include "Dag Nab It", "Quizas Quizas Quizas", "Five Six & Seven", "Little Green Apples", "I Say A Little Prayer", "After Hours", and "Where The Wind Blows".
Ray Bryant - Up Above the Rock (1968) {2014 Japan Rare Groove Funk Best Collection 1000 Series UCCU-90071}


Personnel:
Ray Bryant - piano
Ron Carter - bass
Grady Tate - drums
Snookie Young, Danny Moore, Dobbie Hiques - flugelhorn, trumpet

tracklist:
01 - Up Above the Rock
02 - Dag Nab It
03 - Quizas, Quizas, Quizas
04 - If I Were a Carpenter
05 - Little Green Apples
06 - I Say a Little Prayer
07 - After Hours
08 - Where the Wind Blows
09 - Five, Six and Seven
10 - Mrs. Robinson

Exact Audio Copy V1.1 from 23. June 2015

EAC extraction logfile from 17. May 2016, 23:14

Ray Bryant / Up Above the Rock

Used drive : ASUS DRW-24B1LT Adapter: 5 ID: 1

Read mode : Secure
Utilize accurate stream : Yes
Defeat audio cache : Yes
Make use of C2 pointers : No

Read offset correction : 6
Overread into Lead-In and Lead-Out : No
Fill up missing offset samples with silence : Yes
Delete leading and trailing silent blocks : No
Null samples used in CRC calculations : Yes
Used interface : Installed external ASPI interface

Used output format : User Defined Encoder
Selected bitrate : 768 kBit/s
Quality : High
Add ID3 tag : No
Command line compressor : C:\Program Files\Exact Audio Copy\Flac\flac.exe
Additional command line options : -8 -V -T "ARTIST=%artist%" -T "TITLE=%title%" -T "ALBUM=%albumtitle%" -T "DATE=%year%" -T "TRACKNUMBER=%tracknr%" -T "TOTALTRACKS=%numtracks%" -T "GENRE=%genre%" -T "ALBUMARTIST=%albumartist%" -T "ALBUM ARTIST=%albumartist%" -T "COMMENT=EAC Secure Mode, Test & Copy, AccurateRip, FLAC -8" %source%


TOC of the extracted CD

Track | Start | Length | Start sector | End sector
––––––––––––––––––––––––––––-
1 | 0:00.00 | 3:05.05 | 0 | 13879
2 | 3:05.05 | 3:38.55 | 13880 | 30284
3 | 6:43.60 | 3:23.65 | 30285 | 45574
4 | 10:07.50 | 2:53.30 | 45575 | 58579
5 | 13:01.05 | 3:25.45 | 58580 | 73999
6 | 16:26.50 | 4:54.35 | 74000 | 96084
7 | 21:21.10 | 3:52.27 | 96085 | 113511
8 | 25:13.37 | 4:38.73 | 113512 | 134434
9 | 29:52.35 | 3:25.07 | 134435 | 149816
10 | 33:17.42 | 2:56.15 | 149817 | 163031


Range status and errors

Selected range

Filename F:\audio\Ray Bryant - Up Above the Rock.wav

Peak level 100.0 %
Extraction speed 5.1 X
Range quality 100.0 %
Test CRC 3BBFD273
Copy CRC 3BBFD273
Copy OK

No errors occurred


AccurateRip summary

Track 1 accurately ripped (confidence 3) [A87C7806] (AR v2)
Track 2 accurately ripped (confidence 3) [2667D1EB] (AR v2)
Track 3 accurately ripped (confidence 3) [CAFB38B8] (AR v2)
Track 4 accurately ripped (confidence 3) [82F1A0EB] (AR v2)
Track 5 accurately ripped (confidence 3) [20C32DC5] (AR v2)
Track 6 accurately ripped (confidence 3) [F8090A9D] (AR v2)
Track 7 accurately ripped (confidence 3) [FB303F54] (AR v2)
Track 8 accurately ripped (confidence 3) [B0609E4D] (AR v2)
Track 9 accurately ripped (confidence 3) [7D99F2C7] (AR v2)
Track 10 accurately ripped (confidence 3) [9D59F5DA] (AR v2)

All tracks accurately ripped

End of status report

–– CUETools DB Plugin V2.1.6

[CTDB TOCID: txFKeFgaGvPLDW2dScVn6vigmdA-] found
Submit result: txFKeFgaGvPLDW2dScVn6vigmdA- has been confirmed
Track | CTDB Status
1 | (1/1) Accurately ripped
2 | (1/1) Accurately ripped
3 | (1/1) Accurately ripped
4 | (1/1) Accurately ripped
5 | (1/1) Accurately ripped
6 | (1/1) Accurately ripped
7 | (1/1) Accurately ripped
8 | (1/1) Accurately ripped
9 | (1/1) Accurately ripped
10 | (1/1) Accurately ripped


==== Log checksum 69A9E72D07CEF7D9FD6BB2F0B7105E91F779DC8A040F4DDD9839595B0245FADE ====


Ray Bryant - Up Above the Rock (1968) {2014 Japan Rare Groove Funk Best Collection 1000 Series UCCU-90071}

Ray Bryant - Up Above the Rock (1968) {2014 Japan Rare Groove Funk Best Collection 1000 Series UCCU-90071}


see more Japan Rare Groove Funk Best Collection 1000 Series…


===