Subcategories

Richard Cheese - I'd Like A Virgin (2004)

Posted By: Notsaint
Richard Cheese - I'd Like A Virgin (2004)

Richard Cheese - I'd Like A Virgin (2004)
EAC Rip | FLAC (tracks+.cue+log) | Duration: 38:26 | Label: SURFDOG RECORDS (#) 43218 | covers | 243 Mb
Genre: Lounge, Comedy

Three albums in and thanks to clever little touches here and there, Richard Cheese's "swankifying" of pop hits hasn't worn out its welcome. If you're not familiar, Cheese is a fake Las Vegas-styled lounge act who takes tracks like Mötley Crüe's "Girls, Girls, Girls" or Snoop Dogg's "Gin and Juice" and delivers them in a finger-snapping, Rat Pack manner. He's always stuck in the late show with some blue and occasionally sick humor – a children's choir appears on his version of Michael Jackson's "Beat It" – seeping through and betraying his squeaky clean grin. His "caught in a time capsule" story holds as Cheese trips on some up-to-the-minute slang or gives Kelis' "Milk Shake" a way old-school Leroy Anderson-like arrangement. Short interludes with folks like Will Lee and Carson Daily gushing over his music are dropped throughout the record and help create the great flow of the album, proving someone had their eye on the overall product. If you think Cheese is a one-trick pony, you're right, but he works hard on his one-note craft. Thanks to his quality control, I'd Like a Virgin is fun, smart, sparkling trash and just the right way to get your next cocktail party hopping.
~ David Jeffries, AllMusic.com

Tracklist
Трeклист:
01. Gin & Juice (2:23)
02. Yellow (1:29)
03. Girls Girls Girls (1:59)
04. Are You Gonna Be My Girl? (2:22)
05. A Message From The Other Dick (0:14)
06. Butterfly (1:44)
07. Hey Ya! (1:55)
08. Beat It (2:10)
09. Milkshake (0:49)
10. Dick In Las Vegas (1:49)
11. Personal Jesus (1:44)
12. Material Girl (2:03)
13. RC On NBC's Last Call With Carson Daly (1:35)
14. War Ensemble (1:52)
15. Stand Up (1:53)
16. A Song Request (1:02)
17. Feeling This (1:46)
18. 99 Lugtballons (0:54)
19. Rock The Casbah (1:20)
20. Longview (2:09)
21. Secret Hidden Track (3:20)
22. Richard Cheese Radio Announcement (0:23)
23. Radio Clips (1:31)

Richard Cheese - I'd Like A Virgin (2004)

Richard Cheese - I'd Like A Virgin (2004)



Exact Audio Copy V0.99 prebeta 3 from 28. July 2007

EAC extraction logfile from 27. May 2008, 16:21

Richard Cheese / I'd Like A Virgin

Used drive : TSSTcorpCD/DVDW SH-S182M Adapter: 1 ID: 0

Read mode : Secure
Utilize accurate stream : Yes
Defeat audio cache : Yes
Make use of C2 pointers : No

Read offset correction : 6
Overread into Lead-In and Lead-Out : No
Fill up missing offset samples with silence : Yes
Delete leading and trailing silent blocks : No
Null samples used in CRC calculations : Yes
Used interface : Installed external ASPI interface
Gap handling : Appended to previous track

Used output format : User Defined Encoder
Selected bitrate : 192 kBit/s
Quality : High
Add ID3 tag : No
Command line compressor : C:\Program Files\Exact Audio Copy\flac.exe
Additional command line options : -8 -A tukey(0.25) -A gauss(0.1875) -b 4096 -V -T "artist=%a" -T "title=%t" -T "album=%g" -T "date=%y" -T "tracknumber=%n" -T "genre=%m" %s –sector-align


TOC of the extracted CD

Track | Start | Length | Start sector | End sector
––––––––––––––––––––––––––––-
1 | 0:00.00 | 2:23.37 | 0 | 10761
2 | 2:23.37 | 1:29.33 | 10762 | 17469
3 | 3:52.70 | 1:58.70 | 17470 | 26389
4 | 5:51.65 | 2:22.02 | 26390 | 37041
5 | 8:13.67 | 0:13.45 | 37042 | 38061
6 | 8:27.37 | 1:43.60 | 38062 | 45846
7 | 10:11.22 | 1:54.60 | 45847 | 54456
8 | 12:06.07 | 2:09.45 | 54457 | 64176
9 | 14:15.52 | 0:48.68 | 64177 | 67844
10 | 15:04.45 | 1:49.15 | 67845 | 76034
11 | 16:53.60 | 1:43.45 | 76035 | 83804
12 | 18:37.30 | 2:02.45 | 83805 | 92999
13 | 20:40.00 | 1:34.50 | 93000 | 100099
14 | 22:14.50 | 1:52.27 | 100100 | 108526
15 | 24:07.02 | 1:52.73 | 108527 | 116999
16 | 26:00.00 | 1:02.35 | 117000 | 121684
17 | 27:02.35 | 1:46.12 | 121685 | 129646
18 | 28:48.47 | 0:54.08 | 129647 | 133704
19 | 29:42.55 | 1:20.20 | 133705 | 139724
20 | 31:03.00 | 2:08.42 | 139725 | 149366
21 | 33:11.42 | 3:20.35 | 149367 | 164401
22 | 36:32.02 | 0:22.45 | 164402 | 166096
23 | 36:54.47 | 1:31.33 | 166097 | 172954


Track 1

Filename C:\Documents and Settings\Owner\My Documents\New Folder (3)\01 - Richard Cheese - Gin & Juice (orig. by Snoop Doggy Dog).wav

Pre-gap length 0:00:02.00

Peak level 98.8 %
Track quality 100.0 %
Test CRC FCA10567
Copy CRC FCA10567
Accurately ripped (confidence 3) [90534837]
Copy OK

Track 2

Filename C:\Documents and Settings\Owner\My Documents\New Folder (3)\02 - Richard Cheese - Yellow (orig. by Coldplay).wav

Pre-gap length 0:00:00.53

Peak level 98.8 %
Track quality 100.0 %
Test CRC D259891E
Copy CRC D259891E
Accurately ripped (confidence 3) [F6962A1C]
Copy OK

Track 3

Filename C:\Documents and Settings\Owner\My Documents\New Folder (3)\03 - Richard Cheese - Girls Girls Girls (orig. by Motley Crue).wav

Pre-gap length 0:00:00.17

Peak level 98.8 %
Track quality 100.0 %
Test CRC 541619E1
Copy CRC 541619E1
Accurately ripped (confidence 3) [0E95B62A]
Copy OK

Track 4

Filename C:\Documents and Settings\Owner\My Documents\New Folder (3)\04 - Richard Cheese - Are You Gonna Be My Girl (orig. by Jet).wav

Pre-gap length 0:00:00.04

Peak level 98.8 %
Track quality 100.0 %
Test CRC 5CB5FFC9
Copy CRC 5CB5FFC9
Accurately ripped (confidence 3) [6F1AB483]
Copy OK

Track 5

Filename C:\Documents and Settings\Owner\My Documents\New Folder (3)\05 - Richard Cheese - A Message From The Other Dick (Clark).wav

Peak level 98.8 %
Track quality 99.2 %
Test CRC ED8360A3
Copy CRC ED8360A3
Accurately ripped (confidence 3) [CB4099CD]
Copy OK

Track 6

Filename C:\Documents and Settings\Owner\My Documents\New Folder (3)\06 - Richard Cheese - Butterfly (orig. by Crazy Town).wav

Peak level 98.8 %
Track quality 100.0 %
Test CRC C9FE48F9
Copy CRC C9FE48F9
Accurately ripped (confidence 3) [27C5361A]
Copy OK

Track 7

Filename C:\Documents and Settings\Owner\My Documents\New Folder (3)\07 - Richard Cheese - Hey Ya (orig. by Outkast).wav

Peak level 98.8 %
Track quality 100.0 %
Test CRC 31A3CFB5
Copy CRC 31A3CFB5
Accurately ripped (confidence 3) [A1AA326C]
Copy OK

Track 8

Filename C:\Documents and Settings\Owner\My Documents\New Folder (3)\08 - Richard Cheese - Beat It (orig. by Michael Jackson).wav

Pre-gap length 0:00:00.73

Peak level 98.8 %
Track quality 100.0 %
Test CRC 1C1280E0
Copy CRC 1C1280E0
Accurately ripped (confidence 3) [2F511323]
Copy OK

Track 9

Filename C:\Documents and Settings\Owner\My Documents\New Folder (3)\09 - Richard Cheese - Milkshake (orig. by Kelis).wav

Pre-gap length 0:00:00.09

Peak level 98.8 %
Track quality 100.0 %
Test CRC 9DE8C82D
Copy CRC 9DE8C82D
Accurately ripped (confidence 2) [887BD7C8]
Copy OK

Track 10

Filename C:\Documents and Settings\Owner\My Documents\New Folder (3)\10 - Richard Cheese - Dick In Las Vegas (live at Sunset Station).wav

Pre-gap length 0:00:00.44

Peak level 98.8 %
Track quality 100.0 %
Test CRC 0525FB82
Copy CRC 0525FB82
Accurately ripped (confidence 3) [D8941187]
Copy OK

Track 11

Filename C:\Documents and Settings\Owner\My Documents\New Folder (3)\11 - Richard Cheese - Personal Jesus (orig. by Depeche Mode).wav

Peak level 98.8 %
Track quality 99.8 %
Test CRC E3C6E68C
Copy CRC E3C6E68C
Accurately ripped (confidence 3) [B4EBA23D]
Copy OK

Track 12

Filename C:\Documents and Settings\Owner\My Documents\New Folder (3)\12 - Richard Cheese - Material Girl (orig. by Madonna).wav

Pre-gap length 0:00:00.26

Peak level 98.8 %
Track quality 100.0 %
Test CRC 39288FC6
Copy CRC 39288FC6
Accurately ripped (confidence 3) [6E65AD21]
Copy OK

Track 13

Filename C:\Documents and Settings\Owner\My Documents\New Folder (3)\13 - Richard Cheese - RC on NBC's Last Call with Carson Daly.wav

Peak level 89.8 %
Track quality 100.0 %
Test CRC DBAA6C8E
Copy CRC DBAA6C8E
Accurately ripped (confidence 3) [7C2F5046]
Copy OK

Track 14

Filename C:\Documents and Settings\Owner\My Documents\New Folder (3)\14 - Richard Cheese - War Ensemble (orig. by Slayer).wav

Peak level 98.8 %
Track quality 100.0 %
Test CRC B4FAA2F8
Copy CRC B4FAA2F8
Accurately ripped (confidence 3) [032A65EC]
Copy OK

Track 15

Filename C:\Documents and Settings\Owner\My Documents\New Folder (3)\15 - Richard Cheese - Stand Up (orig. by Ludacris).wav

Peak level 98.8 %
Track quality 100.0 %
Test CRC 37A5434C
Copy CRC 37A5434C
Accurately ripped (confidence 3) [4AEE8626]
Copy OK

Track 16

Filename C:\Documents and Settings\Owner\My Documents\New Folder (3)\16 - Richard Cheese - A Song Request (live at Sunset Station).wav

Peak level 69.9 %
Track quality 100.0 %
Test CRC 68A23131
Copy CRC 68A23131
Accurately ripped (confidence 3) [54D0116A]
Copy OK

Track 17

Filename C:\Documents and Settings\Owner\My Documents\New Folder (3)\17 - Richard Cheese - Feeling This (orig. by Blink 182).wav

Peak level 98.8 %
Track quality 100.0 %
Test CRC 1C2EC176
Copy CRC 1C2EC176
Accurately ripped (confidence 3) [AF642111]
Copy OK

Track 18

Filename C:\Documents and Settings\Owner\My Documents\New Folder (3)\18 - Richard Cheese - 99 Luftballons (orig. by Nena).wav

Pre-gap length 0:00:00.06

Peak level 69.9 %
Track quality 99.8 %
Test CRC 4B99418F
Copy CRC 4B99418F
Accurately ripped (confidence 3) [1632D531]
Copy OK

Track 19

Filename C:\Documents and Settings\Owner\My Documents\New Folder (3)\19 - Richard Cheese - Rock the Casbah (orig. by The Clash).wav

Peak level 98.8 %
Track quality 100.0 %
Test CRC 101B700B
Copy CRC 101B700B
Accurately ripped (confidence 3) [D1DD10DC]
Copy OK

Track 20

Filename C:\Documents and Settings\Owner\My Documents\New Folder (3)\20 - Richard Cheese - Longview (orig. by Green Day).wav

Peak level 98.8 %
Track quality 100.0 %
Test CRC 1D22F83D
Copy CRC 1D22F83D
Accurately ripped (confidence 3) [FF53952B]
Copy OK

Track 21

Filename C:\Documents and Settings\Owner\My Documents\New Folder (3)\21 - Richard Cheese - Secret Hidden Track (the tiger story).wav

Peak level 98.8 %
Track quality 100.0 %
Test CRC 97F7375B
Copy CRC 97F7375B
Accurately ripped (confidence 3) [787F7E6D]
Copy OK

Track 22

Filename C:\Documents and Settings\Owner\My Documents\New Folder (3)\22 - Richard Cheese - Richard Cheese Radio Announcement.wav

Pre-gap length 0:00:00.93

Peak level 69.9 %
Track quality 100.0 %
Test CRC B9AFA230
Copy CRC B9AFA230
Accurately ripped (confidence 3) [282C3884]
Copy OK

Track 23

Filename C:\Documents and Settings\Owner\My Documents\New Folder (3)\23 - Richard Cheese - Radio Clips.wav

Pre-gap length 0:00:10.73

Peak level 98.8 %
Track quality 100.0 %
Test CRC A49827EF
Copy CRC A49827EF
Accurately ripped (confidence 3) [0634C926]
Copy OK


All tracks accurately ripped

No errors occurred

End of status report


Thanks to original uploader !

Download :