Subcategories

Erik Norlander - Music Machine 2 CD (2003)

Posted By: rd
Erik Norlander - Music Machine 2 CD (2003)

Erik Norlander - Music Machine 2 CD (2003)
EAC Rip | APE + CUE + LOG | 799 Mb | MP3 320 CBR | 296 Mb | Covers | 1:46:17
Genre: Progressive Rock

Keyboard virtuoso and producer extraordinaire Erik Norlander proudly announces the release of his 2003 rock opera, Music Machine, a double CD concept album about the dramatic rise and fall of a genetically engineered rock star.

Release Date: 21 May 2003
Label: CDM / Think Tank Media CDM 2446/2447


Band:

vocalists:

Kelly Keeling (MSG, Blue Murder, Heaven and Earth)
Mark Boals (Yngwie, Ring of Fire)
Scott Kail
Donald "Buck Dharma" Roeser (Blue Oyster Cult)

instrumentalists:

Eric Norlander - keyboard
Peer Verschuren - guitar
Neil Citron - guitar
Donald "Buck Dharma" Roeser - guitar
Vinny Appice - drums (Black Sabbath, Dio)
Gregg Bissonette - drums (ELO, David Lee Roth, Joe Satriani, etc.)
Virgil Donati - drums (Steve Vai, Planet X, Ring of Fire)
Tony Franklin - fretless bass (The Firm, Blue Murder, Whitesnake)
Don Schiff - NS/Stick

Tracklist:

DISC ONE:
1. Prologue: Project Blue Prince [3:38]
2. Music Machine [6:39]
3. Turn Me On [5:49]
4. Heavy Metal Symphony [6:31]
5. Tour of the Sprawl [8:40]
6. Andromeda [6:02]
7. Letter from Space [3:16]
8. Lost Highway [5:12]
9. Soma Holiday [3:04]
10. Return of the Neurosaur [1:39]
11. Project Blue Prince Reprise [1:12]

DISC TWO:
1. Fanfare and Interlude [3:04]
2. Beware the Vampires [5:18]
3. The Fire of Change [7:53]
4. The Fall of the Idol [5:43]
5. Metamorphosis [3:14]
6. One of the Machines [ 5:17]
7. Fallen [5:13]
8. Johnny America [6:35]
9. Music Machine Reprise [1:53]
10. Epilogue: Sky Full of Stars [10:14]

MP3

CD 1

Part 1

или / or

Part 1

CD 2

Part 1

или / or

Part 1

APE

CD 1

Part 1
Part 2

или / or

Part 1
Part 2

CD 2

Part 1
Part 2

или / or

Part 1
Part 2

В каждом архиве инфа для восстановления! Сканы в комплекте. Части взаимозаменяемы.
Each archive contains information for recovery! Covers included. All parts are interchangeable


Exact Audio Copy V0.99 prebeta 5 from 4. May 2009

EAC extraction logfile from 7. November 2010, 23:47

Erik Norlander / Music Machine (Disc One:Rise)

Used drive : PLEXTOR DVDR PX-860A Adapter: 0 ID: 0

Read mode : Secure
Utilize accurate stream : Yes
Defeat audio cache : Yes
Make use of C2 pointers : No

Read offset correction : 96
Overread into Lead-In and Lead-Out : No
Fill up missing offset samples with silence : Yes
Delete leading and trailing silent blocks : No
Null samples used in CRC calculations : Yes
Used interface : Installed external ASPI interface

Used output format : Monkey's Audio Lossless Encoder
Selected bitrate : Normal Lossless Compression
Quality : High
Add ID3 tag : Yes
Command line compressor : C:\Program Files\Monkey's Audio\MAC.exe


TOC of the extracted CD

Track | Start | Length | Start sector | End sector
––––––––––––––––––––––––––––-
1 | 0:00.00 | 3:38.38 | 0 | 16387
2 | 3:38.38 | 6:39.00 | 16388 | 46312
3 | 10:17.38 | 5:49.35 | 46313 | 72522
4 | 16:06.73 | 6:31.02 | 72523 | 101849
5 | 22:38.00 | 8:40.00 | 101850 | 140849
6 | 31:18.00 | 6:02.00 | 140850 | 167999
7 | 37:20.00 | 3:16.00 | 168000 | 182699
8 | 40:36.00 | 5:12.09 | 182700 | 206108
9 | 45:48.09 | 3:04.67 | 206109 | 219975
10 | 48:53.01 | 1:39.31 | 219976 | 227431
11 | 50:32.32 | 1:14.53 | 227432 | 233034


Range status and errors

Selected range

Filename J:\MUSIC\Erik Norlander - Music Machine (Disc One Rise).wav

Peak level 100.0 %
Range quality 99.9 %
Test CRC 7E51CFD0
Copy CRC 7E51CFD0
Copy OK

No errors occurred


AccurateRip summary

Track 1 not present in database
Track 2 not present in database
Track 3 not present in database
Track 4 not present in database
Track 5 not present in database
Track 6 not present in database
Track 7 not present in database
Track 8 not present in database
Track 9 not present in database
Track 10 not present in database
Track 11 not present in database

None of the tracks are present in the AccurateRip database

End of status report
*********
Exact Audio Copy V0.99 prebeta 5 from 4. May 2009

EAC extraction logfile from 8. November 2010, 0:16

Erik Norlander / Music Machine (Disc 2/2)

Used drive : PLEXTOR DVDR PX-860A Adapter: 0 ID: 0

Read mode : Secure
Utilize accurate stream : Yes
Defeat audio cache : Yes
Make use of C2 pointers : No

Read offset correction : 96
Overread into Lead-In and Lead-Out : No
Fill up missing offset samples with silence : Yes
Delete leading and trailing silent blocks : No
Null samples used in CRC calculations : Yes
Used interface : Installed external ASPI interface

Used output format : Monkey's Audio Lossless Encoder
Selected bitrate : Normal Lossless Compression
Quality : High
Add ID3 tag : Yes
Command line compressor : C:\Program Files\Monkey's Audio\MAC.exe


TOC of the extracted CD

Track | Start | Length | Start sector | End sector
––––––––––––––––––––––––––––-
1 | 0:00.00 | 3:04.09 | 0 | 13808
2 | 3:04.09 | 5:18.29 | 13809 | 37687
3 | 8:22.38 | 7:53.37 | 37688 | 73199
4 | 16:16.00 | 5:43.39 | 73200 | 98963
5 | 21:59.39 | 3:14.32 | 98964 | 113545
6 | 25:13.71 | 5:17.42 | 113546 | 137362
7 | 30:31.38 | 5:13.37 | 137363 | 160874
8 | 35:45.00 | 6:35.09 | 160875 | 190508
9 | 42:20.09 | 1:53.42 | 190509 | 199025
10 | 44:13.51 | 10:16.37 | 199026 | 245262


Range status and errors

Selected range

Filename J:\MUSIC\Erik Norlander - Music Machine (Disc 2 2).wav

Peak level 100.0 %
Range quality 99.9 %
Test CRC 3B68A621
Copy CRC 3B68A621
Copy OK

No errors occurred


AccurateRip summary

Track 1 not present in database
Track 2 not present in database
Track 3 not present in database
Track 4 not present in database
Track 5 not present in database
Track 6 not present in database
Track 7 not present in database
Track 8 not present in database
Track 9 not present in database
Track 10 not present in database

None of the tracks are present in the AccurateRip database

End of status report


Прошу обратить внимание на то, что весь материал, представленный выше, предназначен исключительно для ознакомления! Приобретайте, пожалуйста, легальные диски, которые вне всякого сомнения станут достойным украшением вашей коллекции!