Subcategories

Shaman - Origins (2011)

Posted By: rd
Shaman - Origins (2011)

Shaman - Origins (2010)
EAC Rip | APE + CUE + LOG | 326 Mb | Covers | 42:49
Genre: Power Metal

Одна из самых известных на сегодняшний день power групп из Бразилии!


Release Date: June 23rd, 2010
Label: Mazzar/Mystic Empire / Scarlet


Official Website
Wikipedia
Encyclopaedia Metallum
MySpace Music

Tracklist:

01. Origins (The Day I Died)
02. Lethal Awakening
03. Inferno Veil
04. Ego Pt.1
05. Ego Pt.2
06. Finnaly Home
07. Rising Up Your Life
08. No Mind
09. Blind Messiah
10. Signed, Sealed and Delivered

APE

FSonic 1 FSonic 2

или / or

IFolder 1 IFolder 2

или / or

FServe 1 FServe 2

Инфа для восстановления и сканы в комплекте. Части взаимозаменяемы.
Information for recovery & covers included. All parts are interchangeable


Exact Audio Copy V0.99 prebeta 5 from 4. May 2009

EAC extraction logfile from 4. February 2011, 23:09

Shaman / Origins

Used drive : ASUS DRW-1814BLT Adapter: 1 ID: 0

Read mode : Secure
Utilize accurate stream : Yes
Defeat audio cache : Yes
Make use of C2 pointers : No

Read offset correction : 6
Overread into Lead-In and Lead-Out : No
Fill up missing offset samples with silence : Yes
Delete leading and trailing silent blocks : No
Null samples used in CRC calculations : Yes
Used interface : Installed external ASPI interface

Used output format : Monkey's Audio Lossless Encoder
Selected bitrate : Normal Lossless Compression
Quality : High
Add ID3 tag : Yes
Command line compressor : C:\Program Files\Monkey's Audio\MAC.exe


TOC of the extracted CD

Track | Start | Length | Start sector | End sector
––––––––––––––––––––––––––––-
1 | 0:00.00 | 1:01.51 | 0 | 4625
2 | 1:01.51 | 3:40.03 | 4626 | 21128
3 | 4:41.54 | 5:22.34 | 21129 | 45312
4 | 10:04.13 | 2:21.24 | 45313 | 55911
5 | 12:25.37 | 5:01.14 | 55912 | 78500
6 | 17:26.51 | 5:54.24 | 78501 | 105074
7 | 23:21.00 | 3:40.57 | 105075 | 121631
8 | 27:01.57 | 4:13.69 | 121632 | 140675
9 | 31:15.51 | 5:42.35 | 140676 | 166360
10 | 36:58.11 | 5:51.25 | 166361 | 192710


Range status and errors

Selected range

Filename J:\MUSIC\Shaman - Origins.wav

Peak level 96.6 %
Range quality 100.0 %
Test CRC 6B65A164
Copy CRC 6B65A164
Copy OK

No errors occurred


AccurateRip summary

Track 1 not present in database
Track 2 not present in database
Track 3 not present in database
Track 4 not present in database
Track 5 not present in database
Track 6 not present in database
Track 7 not present in database
Track 8 not present in database
Track 9 not present in database
Track 10 not present in database

None of the tracks are present in the AccurateRip database

End of status report


Прошу обратить внимание на то, что весь материал, представленный выше, предназначен исключительно для ознакомления! Приобретайте, пожалуйста, легальные диски, которые вне всякого сомнения станут достойным украшением вашей коллекции!