Subcategories

Motorjesus - Wheels Of Purgartory (2010)

Posted By: rd
Motorjesus - Wheels Of Purgartory (2010)

Motorjesus - Wheels Of Purgartory (2010)
EAC Rip | APE + CUE + LOG | 443 Mb | MP3 320 CBR | 162 Mb | Covers | 53:21
Genre: Stoner / Heavy Metal

Originally hailing from Baden-Wurttemberg, Germany… Their apparent influences range from AC/DC to ZZ Top. Motorjesus’ best asset is their ability to write catchy rock songs…


Release Date: December 10th, 2010
Label: Pirate Label


Official Website
Encyclopaedia Metallum
MySpace Music

Tracklist:

1. Ignition 01:07
2. Motor Discipline 03:42
3. Fist Of The Dragon 04:10
4. King Of The Dead End Road 03:59
5. Fuel The Warmachine 04:18
6. Hammer Of The Lord 03:44
7. West Of Hell 03:21
8. Down To Zero 04:27
9. Wheels Of Purgatory 03:59
10. The Church (Of Booze And Kerosene) 04:06
11. The Shadowman 04:31
12. Fire 99 03:39
13. Electric Rise 03:39
14. Old Man (Bonus Track) 03:50

MP3

FSonic

или / or

IFolder

APE

FSonic 1 FSonic 2

или / or

IFolder 1 IFolder 2

или / or

FServe 1 FServe 2

Инфа для восстановления и сканы в комплекте. Части взаимозаменяемы.
Information for recovery & covers included. All parts are interchangeable


Exact Audio Copy V0.99 prebeta 5 from 4. May 2009

EAC extraction logfile from 5. March 2011, 19:17

Motorjesus / Wheels Of Purgartory

Used drive : ASUS DRW-1814BLT Adapter: 1 ID: 0

Read mode : Secure
Utilize accurate stream : Yes
Defeat audio cache : Yes
Make use of C2 pointers : No

Read offset correction : 6
Overread into Lead-In and Lead-Out : No
Fill up missing offset samples with silence : Yes
Delete leading and trailing silent blocks : No
Null samples used in CRC calculations : Yes
Used interface : Installed external ASPI interface

Used output format : Monkey's Audio Lossless Encoder
Selected bitrate : Normal Lossless Compression
Quality : High
Add ID3 tag : Yes
Command line compressor : C:\Program Files\Monkey's Audio\MAC.exe


TOC of the extracted CD

Track | Start | Length | Start sector | End sector
––––––––––––––––––––––––––––-
1 | 0:00.00 | 1:07.01 | 0 | 5025
2 | 1:07.01 | 3:41.54 | 5026 | 21654
3 | 4:48.55 | 4:10.05 | 21655 | 40409
4 | 8:58.60 | 3:59.36 | 40410 | 58370
5 | 12:58.21 | 4:18.23 | 58371 | 77743
6 | 17:16.44 | 3:44.20 | 77744 | 94563
7 | 21:00.64 | 3:20.72 | 94564 | 109635
8 | 24:21.61 | 4:27.27 | 109636 | 129687
9 | 28:49.13 | 4:27.11 | 129688 | 149723
10 | 33:16.24 | 3:58.74 | 149724 | 167647
11 | 37:15.23 | 4:06.17 | 167648 | 186114
12 | 41:21.40 | 4:31.29 | 186115 | 206468
13 | 45:52.69 | 3:38.72 | 206469 | 222890
14 | 49:31.66 | 3:50.01 | 222891 | 240141


Range status and errors

Selected range

Filename J:\MUSIC\Motorjesus - Wheels Of Purgartory.wav

Peak level 100.0 %
Range quality 100.0 %
Test CRC E4E98FB3
Copy CRC E4E98FB3
Copy OK

No errors occurred


AccurateRip summary

Track 1 not present in database
Track 2 not present in database
Track 3 not present in database
Track 4 not present in database
Track 5 not present in database
Track 6 not present in database
Track 7 not present in database
Track 8 not present in database
Track 9 not present in database
Track 10 not present in database
Track 11 not present in database
Track 12 not present in database
Track 13 not present in database
Track 14 not present in database

None of the tracks are present in the AccurateRip database

End of status report


Прошу обратить внимание на то, что весь материал, представленный выше, предназначен исключительно для ознакомления! Приобретайте, пожалуйста, легальные диски, которые вне всякого сомнения станут достойным украшением вашей коллекции!