Subcategories

Deicide - To Hell With God (2011)

Posted By: rd
Deicide - To Hell With God (2011)

Drolls - Decimus (2010)
EAC Rip | APE + CUE + LOG | 367 Mb | MP3 320 CBR | 128 Mb | Covers | 35:48
Genre: Death Metal

Главный сатанист американского дэта Глен Бентон и его брутальное дитя - группа Deicide.


Release Date: 15.2.2011
Label: Pirate Label


Encyclopaedia Metallum
MySpace Music

Line-up:

Glen Benton - Vocals, Bass
Jack Owen - Guitar
Ralph Santolla - Guitar
Steve Asheim - Drums

Tracklist:

1. To Hell with God
2. Save Your
3. Witness of Death
4. Conviction
5. Empowered by Blasphemy
6. Angels in Hell
7. Hang in Agony Until You're Dead
8. Servant of the Enemy
9. Into the Darkness You Go
10. How Can You Call Yourself a God

MP3

FSonic

или / or

IFolder

APE

FSonic 1 FSonic 2

или / or

IFolder 1 IFolder 2

Инфа для восстановления и сканы в комплекте. Части взаимозаменяемы.
Information for recovery & covers included. All parts are interchangeable


Exact Audio Copy V0.99 prebeta 5 from 4. May 2009

EAC extraction logfile from 6. March 2011, 0:42

Deicide / To Hell With God

Used drive : ASUS DRW-1814BLT Adapter: 1 ID: 0

Read mode : Secure
Utilize accurate stream : Yes
Defeat audio cache : Yes
Make use of C2 pointers : No

Read offset correction : 6
Overread into Lead-In and Lead-Out : No
Fill up missing offset samples with silence : Yes
Delete leading and trailing silent blocks : No
Null samples used in CRC calculations : Yes
Used interface : Installed external ASPI interface

Used output format : Monkey's Audio Lossless Encoder
Selected bitrate : Normal Lossless Compression
Quality : High
Add ID3 tag : Yes
Command line compressor : C:\Program Files\Monkey's Audio\MAC.exe


TOC of the extracted CD

Track | Start | Length | Start sector | End sector
––––––––––––––––––––––––––––-
1 | 0:00.00 | 4:20.71 | 0 | 19570
2 | 4:20.71 | 3:32.42 | 19571 | 35512
3 | 7:53.38 | 3:05.62 | 35513 | 49449
4 | 10:59.25 | 3:15.69 | 49450 | 64143
5 | 14:15.19 | 3:16.01 | 64144 | 78844
6 | 17:31.20 | 3:12.63 | 78845 | 93307
7 | 20:44.08 | 3:59.17 | 93308 | 111249
8 | 24:43.25 | 3:17.49 | 111250 | 126073
9 | 28:00.74 | 3:32.11 | 126074 | 141984
10 | 31:33.10 | 4:15.39 | 141985 | 161148


Range status and errors

Selected range

Filename J:\MUSIC\Deicide - To Hell With God.wav

Peak level 99.1 %
Range quality 100.0 %
Test CRC A11692DD
Copy CRC A11692DD
Copy OK

No errors occurred


AccurateRip summary

Track 1 not present in database
Track 2 not present in database
Track 3 not present in database
Track 4 not present in database
Track 5 not present in database
Track 6 not present in database
Track 7 not present in database
Track 8 not present in database
Track 9 not present in database
Track 10 not present in database

None of the tracks are present in the AccurateRip database

End of status report


Прошу обратить внимание на то, что весь материал, представленный выше, предназначен исключительно для ознакомления! Приобретайте, пожалуйста, легальные диски, которые вне всякого сомнения станут достойным украшением вашей коллекции!