Subcategories

Nightingale - The Breathing Shadow (1995)

Posted By: rd
Nightingale - The Breathing Shadow (1995)

Nightingale - The Breathing Shadow (1995)
EAC Rip | APE + CUE + LOG | 382 Mb | MP3 320 CBR | 155 Mb | Covers | 53:22
Genre: Progressive Gothic

'The Breathing Shadow' (здесь переиздание 1996 года с бонусом "Eye For An Eye"). Концепция диска напоминает концепцию фильма "Коматозники" - попытки героев узнать, что находится за гранью жизни и смерти. Альбом был записан всего за неделю в студии Unisound (Katatonia, Edge Of Sanity, Diabolical Masquerade, Dissection, Dark Funeral), но этому предшествовали семь лет кропотливой работы.


Release Date: 1996
Label: Irond / Black Mark CD 03-427


Band:

DAN SWANO - all vocals, guitar, keyboards and drums.

Tracklist:

01. Nightfall Overture
02. Sleep…
03. The Dreamrider
04. Higher Than The Sky
05. Recovery Opus
06. The Return To Dreamland
07. Gypsy Eyes
08. Alone?
09. A Lesson In Evil
10. Eye For An Eye

MP3

FSonic

или / or

IFolder

APE

FSonic 1 FSonic 2

или / or

IFolder 1 IFolder 2

Инфа для восстановления и сканы в комплекте. Части взаимозаменяемы.
Information for recovery & covers included. All parts are interchangeable


Exact Audio Copy V0.99 prebeta 5 from 4. May 2009

EAC extraction logfile from 29. January 2011, 1:03

Nightingale / The Breathing Shadow

Used drive : ASUS DRW-1814BLT Adapter: 1 ID: 0

Read mode : Secure
Utilize accurate stream : Yes
Defeat audio cache : Yes
Make use of C2 pointers : No

Read offset correction : 6
Overread into Lead-In and Lead-Out : No
Fill up missing offset samples with silence : Yes
Delete leading and trailing silent blocks : No
Null samples used in CRC calculations : Yes
Used interface : Installed external ASPI interface

Used output format : Monkey's Audio Lossless Encoder
Selected bitrate : Normal Lossless Compression
Quality : High
Add ID3 tag : Yes
Command line compressor : C:\Program Files\Monkey's Audio\MAC.exe


TOC of the extracted CD

Track | Start | Length | Start sector | End sector
––––––––––––––––––––––––––––-
1 | 0:00.00 | 8:10.07 | 0 | 36756
2 | 8:10.07 | 4:40.08 | 36757 | 57764
3 | 12:50.15 | 5:24.30 | 57765 | 82094
4 | 18:14.45 | 6:15.20 | 82095 | 110239
5 | 24:29.65 | 2:15.47 | 110240 | 120411
6 | 26:45.37 | 3:04.43 | 120412 | 134254
7 | 29:50.05 | 3:38.65 | 134255 | 150669
8 | 33:28.70 | 6:37.27 | 150670 | 180471
9 | 40:06.22 | 5:53.48 | 180472 | 206994
10 | 45:59.70 | 7:22.05 | 206995 | 240149


Range status and errors

Selected range

Filename J:\MUSIC\Nightingale - The Breathing Shadow.wav

Peak level 96.9 %
Range quality 100.0 %
Copy CRC 2B7C8FF1
Copy OK

No errors occurred


AccurateRip summary

Track 1 cannot be verified as accurate (confidence 14) [6CA0791C], AccurateRip returned [B7DF7224]
Track 2 cannot be verified as accurate (confidence 14) [E0BEDF4A], AccurateRip returned [BC014DC3]
Track 3 cannot be verified as accurate (confidence 14) [CC9A846E], AccurateRip returned [9F6C3D0E]
Track 4 cannot be verified as accurate (confidence 14) [AF1B0FD8], AccurateRip returned [73B9AD96]
Track 5 cannot be verified as accurate (confidence 14) [F15B28EE], AccurateRip returned [D9002DC6]
Track 6 cannot be verified as accurate (confidence 14) [74F0770B], AccurateRip returned [D783F5BA]
Track 7 cannot be verified as accurate (confidence 14) [674B6B2E], AccurateRip returned [625F5D6E]
Track 8 cannot be verified as accurate (confidence 14) [460F6687], AccurateRip returned [12D4491B]
Track 9 cannot be verified as accurate (confidence 14) [AE338169], AccurateRip returned [AC2BED58]
Track 10 cannot be verified as accurate (confidence 14) [51CD5A5C], AccurateRip returned [CF5E1044]

No tracks could be verified as accurate
You may have a different pressing from the one(s) in the database

End of status report


Прошу обратить внимание на то, что весь материал, представленный выше, предназначен исключительно для ознакомления! Приобретайте, пожалуйста, легальные диски, которые вне всякого сомнения станут достойным украшением вашей коллекции!