Subcategories

Nightingale - The Closing Chronicles (1996)

Posted By: rd
Nightingale - The Closing Chronicles (1996)

Nightingale - The Closing Chronicles (1996)
EAC Rip | APE + CUE + LOG | 293 Mb | MP3 320 CBR | 110 Mb | Covers | 42:31
Genre: Progressive Metal

Вторая часть триптиха.


Release Date: 26 августа 1996
Label: Irond / Black Mark CD 03-422


Band:

DAN SWANO - all vocals, guitar, keyboards and drums.
TOM NOUGA - bass, additional rhythm guitar, lead guitar.

Tracklist:

01. Deep Inside Of Nowhere
02. Revival
03. Thoughts From A Stolen Soul
04. So Long (Still I Wonder)
05. Steal The Moon
06. Intermezzo
07. Alive Adgain
(The Release)
(Shadowland Revisited)
(Breathless)
08. The End

MP3

FSonic

или / or

IFolder

APE

FSonic 1 FSonic 2

или / or

IFolder 1 IFolder 2

Инфа для восстановления и сканы в комплекте. Части взаимозаменяемы.
Information for recovery & covers included. All parts are interchangeable


Exact Audio Copy V0.99 prebeta 5 from 4. May 2009

EAC extraction logfile from 29. January 2011, 1:29

Nightingale / The Closing Chronicles

Used drive : ASUS DRW-1814BLT Adapter: 1 ID: 0

Read mode : Secure
Utilize accurate stream : Yes
Defeat audio cache : Yes
Make use of C2 pointers : No

Read offset correction : 6
Overread into Lead-In and Lead-Out : No
Fill up missing offset samples with silence : Yes
Delete leading and trailing silent blocks : No
Null samples used in CRC calculations : Yes
Used interface : Installed external ASPI interface

Used output format : Monkey's Audio Lossless Encoder
Selected bitrate : Normal Lossless Compression
Quality : High
Add ID3 tag : Yes
Command line compressor : C:\Program Files\Monkey's Audio\MAC.exe


TOC of the extracted CD

Track | Start | Length | Start sector | End sector
––––––––––––––––––––––––––––-
1 | 0:00.00 | 7:12.20 | 0 | 32419
2 | 7:12.20 | 4:24.70 | 32420 | 52289
3 | 11:37.15 | 9:00.70 | 52290 | 92859
4 | 20:38.10 | 4:47.35 | 92860 | 114419
5 | 25:25.45 | 3:17.00 | 114420 | 129194
6 | 28:42.45 | 4:22.40 | 129195 | 148884
7 | 33:05.10 | 9:26.37 | 148885 | 191371


Range status and errors

Selected range

Filename J:\MUSIC\Nightingale - The Closing Chronicles.wav

Peak level 96.9 %
Range quality 100.0 %
Test CRC 9854FD9E
Copy CRC 9854FD9E
Copy OK

No errors occurred


AccurateRip summary

Track 1 cannot be verified as accurate (confidence 14) [CEB70E1C], AccurateRip returned [2D8130E1]
Track 2 cannot be verified as accurate (confidence 14) [B8AC8E25], AccurateRip returned [7F81FD11]
Track 3 cannot be verified as accurate (confidence 13) [0D0284C0], AccurateRip returned [1485FBF1]
Track 4 cannot be verified as accurate (confidence 14) [21273500], AccurateRip returned [CAA2DBD7]
Track 5 cannot be verified as accurate (confidence 13) [3AAC116A], AccurateRip returned [8EDF6039]
Track 6 cannot be verified as accurate (confidence 13) [C48B3B16], AccurateRip returned [E8283A5B]
Track 7 cannot be verified as accurate (confidence 14) [18B6E9C7], AccurateRip returned [9BCE9F41]

No tracks could be verified as accurate
You may have a different pressing from the one(s) in the database

End of status report


Прошу обратить внимание на то, что весь материал, представленный выше, предназначен исключительно для ознакомления! Приобретайте, пожалуйста, легальные диски, которые вне всякого сомнения станут достойным украшением вашей коллекции!