Subcategories

Kataklysm - Sorcery & The Mystical Gate of Reincarnation (1993/95)

Posted By: rd
Kataklysm - Sorcery & The Mystical Gate of Reincarnation (1993/95)

Kataklysm - Sorcery & The Mystical Gate of Reincarnation (1993/95)
EAC Rip | APE + CUE + LOG | 367 Mb | MP3 320 CBR | 128 Mb | Covers | 52:48
Genre: Death Metal

Одни из первых работ мощнейшей дэтовой формации из Канады. Это EP 'The Mystical Gate Of Reincarnation' (Nuclear Blast, 1993) и первый полнометражный диск 'Sorcery' (Nuclear Blast, 1995). Весьма вдохновляющие работы, музыка и лирика на которых доведена до полного безумства. В 1998 году они вышли на Nuclear Blast в сдвоенном виде


Release Date: 1998
Label: Irond / Nuclear Blast CD 03-439


Official Website
Wikipedia
Wikipedia
Encyclopaedia Metallum
MySpace Music

Band:

SORCERY ( NUCLEAR BLAST 1995, CD )

Sylvain Houde : Elder Vocals
Jean-Francois Dagenais : Guitars
Maurizio Iacono : Bass
Max Duhamel : Drums

THE MYSTICAL GATE OF REINCARNATION ( NUCLEAR BLAST
1993, MCD)

Sylvain Houde : Mystical Vocals
Maurizio Iacono : Bass and Backing Vocal
Jean-Francois Dagenais : Guitars
Ariel Saied : Drums

Tracklist:

SORCERY ( NUCLEAR BLAST 1995, CD )

I. 01. SORCERY (Kataklysm part II)
II. THE REBIRTH VORTEX OF CREATION (TRILOGY)
02. MOULD IN A BREED (Chapter I -Bestial propagation-)
03. WHIRLWIND OF WITHERED BLOSSOMS (Chapter II -Forgotten ancestors-)
04. FEELING THE NEVERWORLD (Chapter III -An infinate transmigration-)
III. 05. ELDER GOD
IV. THE RESURRECTED PORTAL OF HEAVEN (TRILOGY)
06. GARDEN OF DREAMS (Chapter I -Supernatural appearance-)
07. ONCE… UPON POSSESSION (Chapter II -Legacy of both lores-)
08. DEAD ZYGOTE (Chapter III -Dethroned Son-)
V. 09. WORLD OF TREASON (Instrumental Vibrations)

THE MYSTICAL GATE OF REINCARNATION ( NUCLEAR BLAST
1993, MCD)

10. FROZEN IN TIME (Chapter I -Will of Suicide-)
11. MYSTICAL PLANE OF EVILS (Chapter II -Enigma of the Unknown-)
12. SHRINE OF LIFE (Chapter III -Reborn Through Death-)
13. THE ORB OF UNCREATION

BONUS TRACKS :

14. ETERNAL, I REACH INFINITY
15. RAYS OF RA
16. L'ODYSSEE

MP3

FSonic

FServe

APE

FSonic 1 FSonic 2 FSonic 3

FServe 1 FServe 2 FServe 3

Инфа для восстановления и сканы в комплекте. Части взаимозаменяемы.
Information for recovery & covers included. All parts are interchangeable


Exact Audio Copy V0.99 prebeta 5 from 4. May 2009

EAC extraction logfile from 29. January 2011, 10:53

Kataklysm / Sorcery & The Mystical Gate of Reincarnation

Used drive : ASUS DRW-1814BLT Adapter: 1 ID: 0

Read mode : Secure
Utilize accurate stream : Yes
Defeat audio cache : Yes
Make use of C2 pointers : No

Read offset correction : 6
Overread into Lead-In and Lead-Out : No
Fill up missing offset samples with silence : Yes
Delete leading and trailing silent blocks : No
Null samples used in CRC calculations : Yes
Used interface : Installed external ASPI interface

Used output format : Monkey's Audio Lossless Encoder
Selected bitrate : Normal Lossless Compression
Quality : High
Add ID3 tag : Yes
Command line compressor : C:\Program Files\Monkey's Audio\MAC.exe


TOC of the extracted CD

Track | Start | Length | Start sector | End sector
––––––––––––––––––––––––––––-
1 | 0:00.00 | 4:56.35 | 0 | 22234
2 | 4:56.35 | 6:12.52 | 22235 | 50186
3 | 11:09.12 | 5:18.18 | 50187 | 74054
4 | 16:27.30 | 5:53.37 | 74055 | 100566
5 | 22:20.67 | 4:00.33 | 100567 | 118599
6 | 26:21.25 | 5:28.55 | 118600 | 143254
7 | 31:50.05 | 2:37.57 | 143255 | 155086
8 | 34:27.62 | 5:07.38 | 155087 | 178149
9 | 39:35.25 | 6:35.10 | 178150 | 207784
10 | 46:10.35 | 7:21.45 | 207785 | 240904
11 | 53:32.05 | 5:31.40 | 240905 | 265769
12 | 59:03.45 | 4:52.37 | 265770 | 287706
13 | 63:56.07 | 3:12.13 | 287707 | 302119
14 | 67:08.20 | 4:28.47 | 302120 | 322266
15 | 71:36.67 | 2:56.70 | 322267 | 335536
16 | 74:33.62 | 3:14.55 | 335537 | 350141


Range status and errors

Selected range

Filename J:\MUSIC\Kataklysm - Sorcery & The Mystical Gate of Reincarnation.wav

Peak level 98.0 %
Range quality 100.0 %
Test CRC 8105D8EE
Copy CRC 8105D8EE
Copy OK

No errors occurred


AccurateRip summary

Track 1 cannot be verified as accurate (confidence 4) [78082CC3], AccurateRip returned [E3979C93]
Track 2 cannot be verified as accurate (confidence 4) [C099F9DD], AccurateRip returned [7ED4AF07]
Track 3 cannot be verified as accurate (confidence 4) [F6F5FB51], AccurateRip returned [2A705107]
Track 4 cannot be verified as accurate (confidence 4) [3A6E6446], AccurateRip returned [C36AB444]
Track 5 cannot be verified as accurate (confidence 4) [076D4F54], AccurateRip returned [559C8FC7]
Track 6 cannot be verified as accurate (confidence 4) [B0B8C647], AccurateRip returned [D6B75684]
Track 7 cannot be verified as accurate (confidence 4) [F278B141], AccurateRip returned [3EB60064]
Track 8 cannot be verified as accurate (confidence 4) [B543F72E], AccurateRip returned [F58B1077]
Track 9 cannot be verified as accurate (confidence 4) [BBF29AEA], AccurateRip returned [49C090CF]
Track 10 cannot be verified as accurate (confidence 4) [1553420C], AccurateRip returned [363209BB]
Track 11 cannot be verified as accurate (confidence 4) [38C841C5], AccurateRip returned [68C991E4]
Track 12 cannot be verified as accurate (confidence 4) [394D96BE], AccurateRip returned [BC4FCD6A]
Track 13 cannot be verified as accurate (confidence 4) [443DA4AD], AccurateRip returned [1236453D]
Track 14 cannot be verified as accurate (confidence 4) [C1AEC80E], AccurateRip returned [122C8756]
Track 15 cannot be verified as accurate (confidence 4) [618373C2], AccurateRip returned [9739C17F]
Track 16 cannot be verified as accurate (confidence 4) [BBA1E01F], AccurateRip returned [053BC54A]

No tracks could be verified as accurate
You may have a different pressing from the one(s) in the database

End of status report


Прошу обратить внимание на то, что весь материал, представленный выше, предназначен исключительно для ознакомления! Приобретайте, пожалуйста, легальные диски, которые вне всякого сомнения станут достойным украшением вашей коллекции!