Subcategories

Signal - Loud & Clear (1989)

Posted By: rd
Signal - Loud & Clear (1989)

Signal - Loud & Clear (1989)
EAC Rip | APE + CUE + LOG | 322 Mb | MP3 320 CBR | 118 Mb | Covers | 42:34
Genre: Melodic Hard Rock/ AOR

Группа, организованная экс-вокалистом King Kobra Марком Фри (Mark Free), которой прочили славу Journey, Survivor, Bad English и Damn Yankees, но которая так и не продвинулась дальше выпуска своего дебютного альбома.


Label: Pirate Label

Band:

Mark Free - lead vocals
Danny Jacob - lead and rhythm guitars
Eric Scott – bass, back vocals
Jan Uvena – drums

Tracklist:

1.Arms Of A Stranger - 4:45
2.Does It Feel Like Love - 4:06
3.My Mistake - 3:48
4.This Love, This Time - 4:48
5.Wake Up You Little Fool - 4:18
6.Liar - 3:44
7.Could This Be Love - 5:03
8.You Won't See Me Cry - 4:13
9.Go - 3:50
10.Run Into The Night - 3:51

MP3

FSonic

или / or

FServe

FLAC

FSonic 1 FSonic 2

или / or

FServe 1 FServe 2

Инфа для восстановления и сканы в комплекте. Части взаимозаменяемы.
Information for recovery & covers included. All parts are interchangeable


Exact Audio Copy V0.99 prebeta 5 from 4. May 2009

EAC extraction logfile from 27. March 2011, 13:24

Signal / Loud & Clear

Used drive : PLEXTOR DVDR PX-860A Adapter: 0 ID: 0

Read mode : Secure
Utilize accurate stream : Yes
Defeat audio cache : Yes
Make use of C2 pointers : No

Read offset correction : 96
Overread into Lead-In and Lead-Out : No
Fill up missing offset samples with silence : Yes
Delete leading and trailing silent blocks : No
Null samples used in CRC calculations : Yes
Used interface : Installed external ASPI interface

Used output format : Monkey's Audio Lossless Encoder
Selected bitrate : Normal Lossless Compression
Quality : High
Add ID3 tag : Yes
Command line compressor : C:\Program Files\Monkey's Audio\MAC.exe


TOC of the extracted CD

Track | Start | Length | Start sector | End sector
––––––––––––––––––––––––––––-
1 | 0:00.00 | 4:45.35 | 0 | 21409
2 | 4:45.35 | 4:06.45 | 21410 | 39904
3 | 8:52.05 | 3:48.20 | 39905 | 57024
4 | 12:40.25 | 4:48.40 | 57025 | 78664
5 | 17:28.65 | 4:18.65 | 78665 | 98079
6 | 21:47.55 | 3:44.40 | 98080 | 114919
7 | 25:32.20 | 5:02.10 | 114920 | 137579
8 | 30:34.30 | 4:14.15 | 137580 | 156644
9 | 34:48.45 | 3:50.50 | 156645 | 173944
10 | 38:39.20 | 3:55.20 | 173945 | 191589


Range status and errors

Selected range

Filename J:\MUSIC\Signal - Loud & Clear.wav

Peak level 100.0 %
Range quality 99.9 %
Test CRC 6ED361AC
Copy CRC 6ED361AC
Copy OK

No errors occurred


AccurateRip summary

Track 1 not present in database
Track 2 not present in database
Track 3 not present in database
Track 4 not present in database
Track 5 not present in database
Track 6 not present in database
Track 7 not present in database
Track 8 not present in database
Track 9 not present in database
Track 10 not present in database

None of the tracks are present in the AccurateRip database

End of status report


Прошу обратить внимание на то, что весь материал, представленный выше, предназначен исключительно для ознакомления! Приобретайте, пожалуйста, легальные диски, которые вне всякого сомнения станут достойным украшением вашей коллекции!