Subcategories

Mass - Fighter (2011)

Posted By: rd
Mass - Fighter (2011)

Mass - Fighter (2011)
EAC Rip | FLAC + CUE + LOG | 343 Mb | MP3 320 CBR | 132 Mb | Covers | 41:09
Genre: Heavy Metal

Mass is a melodic metal band from Boston that's been around since 1981. They released a couple of albums in the '80s, then resurfaced a few years ago. Their debut album was released in 1985, but it wasn't really their debut album. A few years prior, they were signed to a different label, and due to creative and legal issues, the album was shelved. Finally, almost 30 years later, Fighter is seeing the light of day. (Not to be confused with Metal Fighter, released by the German metal band also called Mass in 1983.)


Release Date: January 25, 2011
Label: Pirate Label


MySpace Music

Tracklist:

1. Watch Her Walk 3:20
2. Part Of Me 3:59
3. Too Far Gone 3:20
4. Do You Love Me 4:26
5. Voyager (Look For The Edge) 4:31
6. Fighter 6:23
7. Can You See It Again 4:59
8. Slip Of The Lip 2:40
9. Change Your Way 3:35
10.Bad Man's Reputation 3:52

MP3

FSonic

или / or

FServe

FLAC

FSonic 1 FSonic 2

или / or

FServe 1 FServe 2

Инфа для восстановления и сканы в комплекте. Части взаимозаменяемы.
Information for recovery & covers included. All parts are interchangeable


Exact Audio Copy V1.0 beta 1 from 15. November 2010

EAC extraction logfile from 29. May 2011, 11:55

Mass / Fighter

Used drive : MATSHITABD-CMB UJ242AS Adapter: 0 ID: 1

Read mode : Secure
Utilize accurate stream : Yes
Defeat audio cache : Yes
Make use of C2 pointers : No

Read offset correction : 103
Overread into Lead-In and Lead-Out : No
Fill up missing offset samples with silence : Yes
Delete leading and trailing silent blocks : No
Null samples used in CRC calculations : Yes
Used interface : Native Win32 interface for Win NT & 2000

Used output format : User Defined Encoder
Selected bitrate : 32 kBit/s
Quality : High
Add ID3 tag : Yes
Command line compressor : C:\Program Files (x86)\Exact Audio Copy\Flac\flac.exe
Additional command line options : -6 -V %s


TOC of the extracted CD

Track | Start | Length | Start sector | End sector
––––––––––––––––––––––––––––-
1 | 0:00.00 | 3:20.21 | 0 | 15020
2 | 3:20.21 | 3:59.69 | 15021 | 33014
3 | 7:20.15 | 3:20.54 | 33015 | 48068
4 | 10:40.69 | 4:26.71 | 48069 | 68089
5 | 15:07.65 | 4:31.41 | 68090 | 88455
6 | 19:39.31 | 6:22.71 | 88456 | 117176
7 | 26:02.27 | 4:59.08 | 117177 | 139609
8 | 31:01.35 | 2:40.23 | 139610 | 151632
9 | 33:41.58 | 3:35.38 | 151633 | 167795
10 | 37:17.21 | 3:52.00 | 167796 | 185195


Range status and errors

Selected range

Filename C:\EACrip\Mass - Fighter.wav

Peak level 96.6 %
Extraction speed 0.1 X
Range quality 100.0 %
Test CRC 2693F63A
Copy CRC 2693F63A
Copy OK

No errors occurred


AccurateRip summary

Track 1 cannot be verified as accurate (confidence 1) [DA6F2540], AccurateRip returned [C8A0715A]
Track 2 cannot be verified as accurate (confidence 1) [7404DF8B], AccurateRip returned [621ED232]
Track 3 cannot be verified as accurate (confidence 1) [BC4D6FBE], AccurateRip returned [22D25FC9]
Track 4 cannot be verified as accurate (confidence 1) [9253EA8E], AccurateRip returned [BE106DAE]
Track 5 cannot be verified as accurate (confidence 1) [73402544], AccurateRip returned [8E742DC4]
Track 6 cannot be verified as accurate (confidence 1) [080A1F36], AccurateRip returned [A11BF36A]
Track 7 cannot be verified as accurate (confidence 1) [6B0FC130], AccurateRip returned [9B137AB4]
Track 8 cannot be verified as accurate (confidence 1) [13224E7D], AccurateRip returned [01B17B4D]
Track 9 cannot be verified as accurate (confidence 1) [008823F1], AccurateRip returned [28451607]
Track 10 cannot be verified as accurate (confidence 1) [2B8C52B9], AccurateRip returned [D68850BB]

No tracks could be verified as accurate
You may have a different pressing from the one(s) in the database

End of status report


Прошу обратить внимание на то, что весь материал, представленный выше, предназначен исключительно для ознакомления! Приобретайте, пожалуйста, легальные диски, которые вне всякого сомнения станут достойным украшением вашей коллекции!