Subcategories

Draconian - A Rose For The Apocalypse (2011)

Posted By: rd
Draconian - A Rose For The Apocalypse (2011)

Draconian - A Rose For The Apocalypse (2011)
EAC Rip | FLAC + CUE + LOG | 483 Mb | MP3 320 CBR | 207 Mb | Covers | 59:47
Genre: Doom Gothic Metal

Непременно рекомендуется всем любителям вдумчивой и красивой музыки.


Label: Mazzar / Napalm

Tracklist:

01. The Drowning Age
02. The Last Hour Ancient Sunlight
03. End Of The Rope
04. Elysian Night
05. Deadlight
06. Dead World Assembly
07. A Phantom Dissonance
08. The Quiet Storm
09. The Death Of Hours
10. Wall Of Sighs

MP3

FSonic

FLAC

FSonic 1 FSonic 2 FSonic 3

Инфа для восстановления и сканы в комплекте. Части взаимозаменяемы.
Information for recovery & covers included. All parts are interchangeable


Exact Audio Copy V0.99 prebeta 5 from 4. May 2009

EAC extraction logfile from 5. August 2011, 20:43

Draconian / A Rose For The Apocalypse

Used drive : PLEXTOR DVDR PX-860A Adapter: 0 ID: 0

Read mode : Secure
Utilize accurate stream : Yes
Defeat audio cache : Yes
Make use of C2 pointers : No

Read offset correction : 96
Overread into Lead-In and Lead-Out : No
Fill up missing offset samples with silence : Yes
Delete leading and trailing silent blocks : No
Null samples used in CRC calculations : Yes
Used interface : Installed external ASPI interface

Used output format : User Defined Encoder
Selected bitrate : 320 kBit/s
Quality : High
Add ID3 tag : Yes
Command line compressor : C:\Program Files\Exact Audio Copy\FLAC.EXE
Additional command line options : -6 -V %s


TOC of the extracted CD

Track | Start | Length | Start sector | End sector
––––––––––––––––––––––––––––-
1 | 0:00.00 | 7:18.38 | 0 | 32887
2 | 7:18.38 | 5:26.49 | 32888 | 57386
3 | 12:45.12 | 6:34.29 | 57387 | 86965
4 | 19:19.41 | 7:52.56 | 86966 | 122421
5 | 27:12.22 | 6:32.62 | 122422 | 151883
6 | 33:45.09 | 5:52.12 | 151884 | 178295
7 | 39:37.21 | 5:39.59 | 178296 | 203779
8 | 45:17.05 | 6:37.19 | 203780 | 233573
9 | 51:54.24 | 7:53.09 | 233574 | 269057


Range status and errors

Selected range

Filename J:\MUSIC\Draconian - A Rose For The Apocalypse.wav

Peak level 98.0 %
Range quality 100.0 %
Test CRC 9996ADA0
Copy CRC 9996ADA0
Copy OK

No errors occurred


AccurateRip summary

Track 1 not present in database
Track 2 not present in database
Track 3 not present in database
Track 4 not present in database
Track 5 not present in database
Track 6 not present in database
Track 7 not present in database
Track 8 not present in database
Track 9 not present in database

None of the tracks are present in the AccurateRip database

End of status report


Прошу обратить внимание на то, что весь материал, представленный выше, предназначен исключительно для ознакомления! Приобретайте, пожалуйста, легальные диски, которые вне всякого сомнения станут достойным украшением вашей коллекции!