Subcategories

Аркона - Стенка на Стенку (2011)

Posted By: rd
Аркона - Стенка на Стенку (2011)

Аркона - Стенка на Стенку (2011)
EAC Rip | FLAC + CUE + LOG | 224 Mb | MP3 320 CBR | 81 Mb | Covers | 24:33
Genre: Folk Black Pagan Metal

Русская digi-pack версия с эксклюзивным bonus video "Стенка на Стенку".


Label: Sound Age

Band:

Маша «Scream» - голос, скриминг, гроулинг, клавишные, бубны, тамбурин, шейкер, комуз, хоровое пение
Сергей "Lazar" - гитары, акустическая гитара, балалайка , комуз, якутский варган («Корочун»)
Руслан «Kniaz» - бас
Влад «Artist» - ударные

Tracklist:

01. Стенка на стенку
02. Валенки
03. Гой, Роде, Гой! (акустическая версия)
04. Skal (feat Varg)
05. Дурень [Сварга cover]
06. Новый Мир [Shaman cover]
+ bonus videoclip HD "Стенка на стенку"

MP3

FSonic

FLAC

FSonic

NRG

FSonic 1 FSonic 2

Инфа для восстановления и сканы в комплекте. Части взаимозаменяемы.
Information for recovery & covers included. All parts are interchangeable


Exact Audio Copy V0.99 prebeta 5 from 4. May 2009

EAC extraction logfile from 30. July 2011, 21:00

АРКОНА / Стенка на Стенку

Used drive : PLEXTOR DVDR PX-860A Adapter: 0 ID: 0

Read mode : Secure
Utilize accurate stream : Yes
Defeat audio cache : Yes
Make use of C2 pointers : No

Read offset correction : 96
Overread into Lead-In and Lead-Out : No
Fill up missing offset samples with silence : Yes
Delete leading and trailing silent blocks : No
Null samples used in CRC calculations : Yes
Used interface : Installed external ASPI interface

Used output format : User Defined Encoder
Selected bitrate : 320 kBit/s
Quality : High
Add ID3 tag : Yes
Command line compressor : C:\Program Files\Exact Audio Copy\FLAC.EXE
Additional command line options : -6 -V %s


TOC of the extracted CD

Track | Start | Length | Start sector | End sector
––––––––––––––––––––––––––––-
1 | 0:00.00 | 2:36.12 | 0 | 11711
2 | 2:36.12 | 3:05.72 | 11712 | 25658
3 | 5:42.09 | 5:46.25 | 25659 | 51633
4 | 11:28.34 | 2:34.68 | 51634 | 63251
5 | 14:03.27 | 6:27.00 | 63252 | 92276
6 | 20:30.27 | 4:03.14 | 92277 | 110515
7 | 27:05.41 | 14:56.35 | 121916 | 189150


Range status and errors

Selected range

Filename J:\MUSIC\АРКОНА - Стенка на Стенку.wav

Peak level 100.0 %
Range quality 100.0 %
Test CRC 9FE36914
Copy CRC 9FE36914
Copy OK

No errors occurred


AccurateRip summary

Track 1 cannot be verified as accurate (confidence 1) [318E2702], AccurateRip returned [C8724B35]
Track 2 cannot be verified as accurate (confidence 1) [7F2D9FEE], AccurateRip returned [D45C60EB]
Track 3 cannot be verified as accurate (confidence 1) [B4F31334], AccurateRip returned [41087BDF]
Track 4 cannot be verified as accurate (confidence 1) [C5DC5B26], AccurateRip returned [63301342]
Track 5 cannot be verified as accurate (confidence 1) [5C89AC25], AccurateRip returned [A6A6FCD9]
Track 6 cannot be verified as accurate (confidence 1) [D3641223], AccurateRip returned [87E50871]

No tracks could be verified as accurate
You may have a different pressing from the one(s) in the database

End of status report


Прошу обратить внимание на то, что весь материал, представленный выше, предназначен исключительно для ознакомления! Приобретайте, пожалуйста, легальные диски, которые вне всякого сомнения станут достойным украшением вашей коллекции!