Subcategories

Various Artists - Bat Head Soup - A Tribute To Ozzy (2000)

Posted By: rd
Various Artists - Bat Head Soup - A Tribute To Ozzy (2000)

V.A. Bat Head Soup - A Tribute To Ozzy (2000)
EAC Rip | APE + CUE + LOG | 402 Mb | MP3 320 CBR | 139 Mb | Covers | 54:49
Genre: Heavy Metal

It is packed with the best top notch guitarists, Malmsteen, Kotzen, Lynch, Gillis, Zappa ,Beach and more. What makes this a great buy is if you like guitarists, they are all here. Great vocalists, percussion; and production was done with great care to preserve OZZY's song integrity.


Label: Pirate Label

Tracklist

1.Mr. Crowley
Vocal: Ripper Owens (ex-Judas Priest)
Guitar: Yngwie Malmsteen
Bass: Tim Bogert (Vanilla Fudge)
Drums: Tommy Aldridge (Whitesnake)
Keyboards: Derek Sherinian (Dream Theater)

2.Over The Mountain
Vocal: Mark Slaughter (Slaughter)
Guitar: Brad Gillis (Night Ranger/Ozzy)
Bass: Gary Moon (Night Ranger)
Drums: Eric Singer (Kiss/Badlands)
Keyboards: Paul Taylor (Alice Cooper)

3. Desire
Vocal: Lemmy (Motorhead)
Guitar: Ritchie Kotzen (Mr. Big)
Bass:Tony Franklin (Whitesnake)
Drums: Vinnie Colaiuta (Sting)

4.Crazy Train
Vocal: Dee Snider (Twisted Sister)
Guitar: Doug Aldrich (Burning Rain)
Bass: Tony Levin (Seal/King Crimson)
Drums: Jason Bonham (Bonham)

5.Goodbye To Romance
Vocal: Lisa Loeb
Guitar: Dweezil Zappa
Bass: Michael Porcaro (Toto)
Drums: Stephen Ferrone (Eric Clapton)
Keyboards: Michael Sherwood (Lodgic)

6.Hellraiser
Vocal: Joe Lynn Turner (Deep Purple/Rainbow)
Guitar: Steve Lukather (Toto)
Bass: Billy Sherwood (Yes)
Drums: Jay Schellen (Hurricane)
Keyboards: Paul Taylor (Alice Cooper)

7.Shot in the Dark
Vocal: Jeff Scott Soto (Yngwie)
Guitar: Bruce Kulick (Kiss/Union)
Bass: Ricky Phillips (Coverdale/Page)
Drums: Pat Torpey (Mr.Big)
Keyboards: Derek Sherinian (Dream Theater)


8.Children of the Grave
Performed by Racer X members
Vocal: Jeff Martin
Guitar: Paul Gilbert
Bass: John Alderete
Drums: Scott Travis

9.Paranoid
Vocal: Vince Neil (Motley Crue)
Guitar: George Lynch (Dokken/Lynch Mob)
Bass: Stu Hamm (Joe Satriani)
Drums: Gregg Bissonette (David Lee Roth)

10.Suicide Solution
Vocal:Adam Paskowitz
Guitar:Peter Perdichizzi
Bass:James Book
Drums:Nick Lucero

11.I Don't Know
Vocal:Jack Blades (Night Ranger/Damn Yankees)
Guitar:Reb Beach (Dokken/Winger)
Bass: Jeff Pilson (Dokken)
Drums: Bobby Blotzer (Ratt)
Keyboards: Paul Taylor (Alice Cooper)

Exact Audio Copy V0.99 prebeta 5 from 4. May 2009

EAC extraction logfile from 7. March 2011, 11:21

Various Artists / Bat Head Soup - A Tribute To Ozzy

Used drive : MATSHITABD-CMB UJ242AS Adapter: 0 ID: 1

Read mode : Secure
Utilize accurate stream : Yes
Defeat audio cache : Yes
Make use of C2 pointers : No

Read offset correction : 103
Overread into Lead-In and Lead-Out : No
Fill up missing offset samples with silence : Yes
Delete leading and trailing silent blocks : No
Null samples used in CRC calculations : Yes
Used interface : Native Win32 interface for Win NT & 2000

Used output format : Monkey's Audio Lossless Encoder
Selected bitrate : Normal Lossless Compression
Quality : High
Add ID3 tag : Yes
Command line compressor : C:\Program Files (x86)\Exact Audio Copy\MAC.exe


TOC of the extracted CD

Track | Start | Length | Start sector | End sector
––––––––––––––––––––––––––––-
1 | 0:00.00 | 4:55.13 | 0 | 22137
2 | 4:55.13 | 4:37.12 | 22138 | 42924
3 | 9:32.25 | 5:54.30 | 42925 | 69504
4 | 15:26.55 | 5:15.45 | 69505 | 93174
5 | 20:42.25 | 5:38.25 | 93175 | 118549
6 | 26:20.50 | 5:36.13 | 118550 | 143762
7 | 31:56.63 | 4:41.60 | 143763 | 164897
8 | 36:38.48 | 5:12.35 | 164898 | 188332
9 | 41:51.08 | 3:34.02 | 188333 | 204384
10 | 45:25.10 | 4:04.28 | 204385 | 222712
11 | 49:29.38 | 5:20.15 | 222713 | 246727


Range status and errors

Selected range

Filename C:\EACrip\Various Artists - Bat Head Soup - A Tribute To Ozzy.wav

Peak level 98.8 %
Range quality 100.0 %
Test CRC 3133CA63
Copy CRC 3133CA63
Copy OK

No errors occurred


AccurateRip summary

Track 1 cannot be verified as accurate (confidence 4) [BDF38C1F], AccurateRip returned [316886BD]
Track 2 cannot be verified as accurate (confidence 3) [40BB78AA], AccurateRip returned [229023FE]
Track 3 cannot be verified as accurate (confidence 3) [C4F0851E], AccurateRip returned [9BFCC104]
Track 4 cannot be verified as accurate (confidence 3) [E2F38203], AccurateRip returned [B20F4397]
Track 5 cannot be verified as accurate (confidence 3) [6C441F3F], AccurateRip returned [D88D1901]
Track 6 cannot be verified as accurate (confidence 3) [F0C0D53F], AccurateRip returned [00315680]
Track 7 cannot be verified as accurate (confidence 3) [70429CA0], AccurateRip returned [3B7F7C78]
Track 8 cannot be verified as accurate (confidence 3) [4783FFC9], AccurateRip returned [CC1F58E9]
Track 9 cannot be verified as accurate (confidence 3) [86306E13], AccurateRip returned [728529A6]
Track 10 cannot be verified as accurate (confidence 3) [5CF50E1F], AccurateRip returned [12E07044]
Track 11 cannot be verified as accurate (confidence 3) [DB76FB6B], AccurateRip returned [42B0AC34]

No tracks could be verified as accurate
You may have a different pressing from the one(s) in the database

End of status report


Прошу обратить внимание на то, что весь материал, представленный выше, предназначен исключительно для ознакомления! Приобретайте, пожалуйста, легальные диски, которые вне всякого сомнения станут достойным украшением вашей коллекции!
MP3

FSonic

или / or

Fpost

или / or

FServe

FLAC

FSonic 1 FSonic 2

или / or

Fpost 1 Fpost 2

или / or

FServe 1 FServe 2