Subcategories

Victory - Don't Talk Science (2011)

Posted By: rd
Victory - Don't Talk Science (2011)

Victory - Don't Talk Science (2011)
EAC Rip | FLAC + CUE + LOG | 448 Mb | MP3 320 CBR | 185 Mb | Covers | 50:25
Genre: Heavy Metal


Label: Pirate Label

Tracklist:

1. Restless 03:48
2. Speak Up 03:12
3. Rock Star 03:22
4. Love Kills Love 03:38
5. Burn Down The City 04:00
6. Down Load Down 03:18
7. Right Between The Eyes 03:32
8. Blinded By Darkness 04:36
9. No Return 04:09
10. Victim Of Lies 04:42
11. Go To Hell 04:02
12. Waiting For The Wind 04:32
13. I'm So Excited (The Pointer Sisters cover) 03:28

MP3

FSonic

или / or

FServe

FLAC

FServe 1 FServe 2

или / or

FSonic 1 FSonic 2

Инфа для восстановления и сканы в комплекте. Части взаимозаменяемы.
Information for recovery & covers included. All parts are interchangeable


Exact Audio Copy V0.99 prebeta 5 from 4. May 2009

EAC extraction logfile from 23. July 2011, 21:01

Victory / Don't Talk Science

Used drive : PLEXTOR DVDR PX-860A Adapter: 0 ID: 0

Read mode : Secure
Utilize accurate stream : Yes
Defeat audio cache : Yes
Make use of C2 pointers : No

Read offset correction : 96
Overread into Lead-In and Lead-Out : No
Fill up missing offset samples with silence : Yes
Delete leading and trailing silent blocks : No
Null samples used in CRC calculations : Yes
Used interface : Installed external ASPI interface

Used output format : User Defined Encoder
Selected bitrate : 1024 kBit/s
Quality : High
Add ID3 tag : Yes
Command line compressor : C:\Program Files\Exact Audio Copy\FLAC.EXE
Additional command line options : -6 -V %s


TOC of the extracted CD

Track | Start | Length | Start sector | End sector
––––––––––––––––––––––––––––-
1 | 0:00.00 | 3:48.32 | 0 | 17131
2 | 3:48.32 | 3:12.25 | 17132 | 31556
3 | 7:00.57 | 3:22.58 | 31557 | 46764
4 | 10:23.40 | 3:38.45 | 46765 | 63159
5 | 14:02.10 | 4:00.25 | 63160 | 81184
6 | 18:02.35 | 3:18.34 | 81185 | 96068
7 | 21:20.69 | 3:32.57 | 96069 | 112025
8 | 24:53.51 | 4:36.34 | 112026 | 132759
9 | 29:30.10 | 4:09.12 | 132760 | 151446
10 | 33:39.22 | 4:42.25 | 151447 | 172621
11 | 38:21.47 | 4:02.62 | 172622 | 190833
12 | 42:24.34 | 4:32.47 | 190834 | 211280
13 | 46:57.06 | 3:28.33 | 211281 | 226913


Range status and errors

Selected range

Filename J:\MUSIC\Victory - Don't Talk Science.wav

Peak level 98.8 %
Range quality 100.0 %
Test CRC A37B8F40
Copy CRC A37B8F40
Copy OK

No errors occurred


AccurateRip summary

Track 1 cannot be verified as accurate (confidence 2) [DB395DEF], AccurateRip returned [9487B8F5]
Track 2 cannot be verified as accurate (confidence 2) [A5D8EFC7], AccurateRip returned [F4D17C8B]
Track 3 cannot be verified as accurate (confidence 2) [411DAC52], AccurateRip returned [BA8A9817]
Track 4 cannot be verified as accurate (confidence 2) [5B65BC58], AccurateRip returned [1BF526D2]
Track 5 cannot be verified as accurate (confidence 2) [88DB4687], AccurateRip returned [AEA21C7E]
Track 6 cannot be verified as accurate (confidence 2) [00C64CB2], AccurateRip returned [AE512D67]
Track 7 cannot be verified as accurate (confidence 2) [F09777AE], AccurateRip returned [37028F18]
Track 8 cannot be verified as accurate (confidence 2) [9345AB15], AccurateRip returned [2C6549D4]
Track 9 cannot be verified as accurate (confidence 2) [08DEE50D], AccurateRip returned [75C5C692]
Track 10 cannot be verified as accurate (confidence 2) [DAB3A580], AccurateRip returned [12C60EB2]
Track 11 cannot be verified as accurate (confidence 2) [B38F1DEC], AccurateRip returned [B924C6C8]
Track 12 cannot be verified as accurate (confidence 2) [A816FB1C], AccurateRip returned [0208D7F0]
Track 13 cannot be verified as accurate (confidence 2) [476DD7D8], AccurateRip returned [061B2FC2]

No tracks could be verified as accurate
You may have a different pressing from the one(s) in the database

End of status report


Прошу обратить внимание на то, что весь материал, представленный выше, предназначен исключительно для ознакомления! Приобретайте, пожалуйста, легальные диски, которые вне всякого сомнения станут достойным украшением вашей коллекции!