Subcategories

Kamelot - Poetry for the Poisoned & Live From Wacken: Limited Tour Edition 2CD (2011)

Posted By: rd
Kamelot - Poetry for the Poisoned & Live From Wacken: Limited Tour Edition 2CD (2011)

Kamelot - Poetry for the Poisoned & Live From Wacken: Limited Tour Edition 2CD (2011)
EAC Rip | FLAC + CUE + LOG | 748 Mb | MP3 320 CBR | 310 Mb | Covers | 1:41:07
Genre: Progressive Symphonic Power Metal

In 2011, a reissue of Poetry for the Poisoned entitled Poetry for the Poisoned & Live From Wacken: Limited Tour Edition was released on April 15 on Europe and May 10 in the US. The album was released as a double-disc set, with the first disc featuring Poetry for the Poisoned as previously released and the second disc contained 8 live tracks from their show at Wacken Open Air 2010.


Release Date: April 15.2011
Label: Pirate Label


Tracklist:

Disc 1:

1. "The Great Pandemonium" (feat. Bjцrn "Speed" Strid) Roy Khan, Thomas Youngblood 4:24
2. "If Tomorrow Came" Khan, Sascha Paeth 3:58
3. "Dear Editor" 1:18
4. "The Zodiac" Khan, Youngblood, Paeth 4:00
5. "Hunter's Season" (feat. Gus G.) Khan, Youngblood 5:34
6. "House on a Hill" (feat. Simone Simons) Khan, Youngblood, Paeth 4:14
7. "Necropolis" Khan, Youngblood 4:16
8. "My Train of Thoughts" Khan, Youngblood 4:08
9. "Seal of Woven Years" Khan, Youngblood 5:13
10. "Poetry for the Poisoned, Pt. I: Incubus" Khan, Youngblood 2:57
11. "Poetry for the Poisoned, Pt. II: So Long" (feat. Simone Simons) Khan, Youngblood 3:24
12. "Poetry for the Poisoned, Pt. III: All Is Over" (feat. Simone Simons) Khan, Youngblood 1:03
13. "Poetry for the Poisoned, Pt. IV: Dissection" Khan, Oliver Palotai[4] 2:00
14. "Once upon a Time" Khan, Youngblood 3:45
15. "Where the Wild Roses Grow" (feat. Chanty Wunder) Nick Cave 4:51

Disc 2 - Live from Wacken Open Air 2010:

1. "The Great Pandemonium" Khan, Youngblood 4:28
2. "Human Stain" Kamelot 4:24
3. "Center of the Universe" Kamelot 5:37
4. "Pendulous Fall" Kamelot 3:57
5. "Hunter's Season" Khan, Youngblood 5:16
6. "Karma" Khan, Youngblood 5:27
7. "Forever" Khan, Youngblood 10:14
8. "March of Mephisto" Kamelot 7:31

MP3

FSonic 1 FSonic 2

or

FServe 1 FServe 2

FLAC

FSonic 1 FSonic 2 FSonic 3 FSonic 4

or

FServe 1 FServe 2 FServe 3 FServe 4

Инфа для восстановления и сканы в комплекте. Части взаимозаменяемы.
Information for recovery & covers included. All parts are interchangeable


Exact Audio Copy V1.0 beta 1 from 15. November 2010

EAC extraction logfile from 17. July 2011, 0:02

Kamelot / Poetry For The Poisoned (Limited ed.)

Used drive : MATSHITABD-CMB UJ242AS Adapter: 0 ID: 1

Read mode : Secure
Utilize accurate stream : Yes
Defeat audio cache : Yes
Make use of C2 pointers : No

Read offset correction : 103
Overread into Lead-In and Lead-Out : No
Fill up missing offset samples with silence : Yes
Delete leading and trailing silent blocks : No
Null samples used in CRC calculations : Yes
Used interface : Native Win32 interface for Win NT & 2000

Used output format : User Defined Encoder
Selected bitrate : 32 kBit/s
Quality : High
Add ID3 tag : Yes
Command line compressor : C:\Program Files (x86)\Exact Audio Copy\Flac\flac.exe
Additional command line options : -6 -V %s


TOC of the extracted CD

Track | Start | Length | Start sector | End sector
––––––––––––––––––––––––––––-
1 | 0:00.00 | 4:22.27 | 0 | 19676
2 | 4:22.27 | 3:55.10 | 19677 | 37311
3 | 8:17.37 | 1:18.08 | 37312 | 43169
4 | 9:35.45 | 4:00.02 | 43170 | 61171
5 | 13:35.47 | 5:33.61 | 61172 | 86207
6 | 19:09.33 | 4:15.18 | 86208 | 105350
7 | 23:24.51 | 4:17.47 | 105351 | 124672
8 | 27:42.23 | 4:07.11 | 124673 | 143208
9 | 31:49.34 | 5:11.44 | 143209 | 166577
10 | 37:01.03 | 2:56.61 | 166578 | 179838
11 | 39:57.64 | 3:23.74 | 179839 | 195137
12 | 43:21.63 | 1:03.13 | 195138 | 199875
13 | 44:25.01 | 1:57.73 | 199876 | 208723
14 | 46:22.74 | 3:47.40 | 208724 | 225788
15 | 50:10.39 | 3:59.26 | 225789 | 243739


Range status and errors

Selected range

Filename C:\EACrip\Kamelot - Poetry For The Poisoned (Limited ed.).wav

Peak level 98.8 %
Extraction speed 0.1 X
Range quality 100.0 %
Test CRC DEBED9B2
Copy CRC DEBED9B2
Copy OK

No errors occurred


AccurateRip summary

Track 1 cannot be verified as accurate (confidence 38) [4B4CE87E], AccurateRip returned [98F6B1A0]
Track 2 cannot be verified as accurate (confidence 38) [A0A8D225], AccurateRip returned [744121F3]
Track 3 cannot be verified as accurate (confidence 38) [3472B5F8], AccurateRip returned [1A986ED0]
Track 4 cannot be verified as accurate (confidence 38) [4598EF1A], AccurateRip returned [627EA99B]
Track 5 cannot be verified as accurate (confidence 38) [2E6E6EF7], AccurateRip returned [F67C5191]
Track 6 cannot be verified as accurate (confidence 38) [1394B735], AccurateRip returned [11F18824]
Track 7 cannot be verified as accurate (confidence 38) [9862581A], AccurateRip returned [EFE72B8C]
Track 8 cannot be verified as accurate (confidence 38) [7028C5E8], AccurateRip returned [6841A75D]
Track 9 cannot be verified as accurate (confidence 38) [62E2A6A4], AccurateRip returned [0639A403]
Track 10 cannot be verified as accurate (confidence 38) [48E6C36E], AccurateRip returned [274D81CE]
Track 11 cannot be verified as accurate (confidence 38) [E83D06B1], AccurateRip returned [88E34008]
Track 12 cannot be verified as accurate (confidence 38) [C05B4946], AccurateRip returned [52BCD8B7]
Track 13 cannot be verified as accurate (confidence 38) [10275D1D], AccurateRip returned [CC4E0F04]
Track 14 cannot be verified as accurate (confidence 38) [353A9A6F], AccurateRip returned [3C87641F]
Track 15 cannot be verified as accurate (confidence 38) [65A05429], AccurateRip returned [BEAF0F81]

No tracks could be verified as accurate
You may have a different pressing from the one(s) in the database

End of status report
***
Exact Audio Copy V1.0 beta 1 from 15. November 2010

EAC extraction logfile from 16. July 2011, 22:57

Kamelot / Poetry for the Poisoned:Live at Wacken 2010

Used drive : MATSHITABD-CMB UJ242AS Adapter: 0 ID: 1

Read mode : Secure
Utilize accurate stream : Yes
Defeat audio cache : Yes
Make use of C2 pointers : No

Read offset correction : 103
Overread into Lead-In and Lead-Out : No
Fill up missing offset samples with silence : Yes
Delete leading and trailing silent blocks : No
Null samples used in CRC calculations : Yes
Used interface : Native Win32 interface for Win NT & 2000

Used output format : User Defined Encoder
Selected bitrate : 32 kBit/s
Quality : High
Add ID3 tag : Yes
Command line compressor : C:\Program Files (x86)\Exact Audio Copy\Flac\flac.exe
Additional command line options : -6 -V %s


TOC of the extracted CD

Track | Start | Length | Start sector | End sector
––––––––––––––––––––––––––––-
1 | 0:00.00 | 4:28.69 | 0 | 20168
2 | 4:28.69 | 4:24.50 | 20169 | 40018
3 | 8:53.44 | 5:37.28 | 40019 | 65321
4 | 14:30.72 | 3:57.69 | 65322 | 83165
5 | 18:28.66 | 5:16.39 | 83166 | 106904
6 | 23:45.30 | 5:27.43 | 106905 | 131472
7 | 29:12.73 | 10:14.14 | 131473 | 177536
8 | 39:27.12 | 7:31.46 | 177537 | 211407


Range status and errors

Selected range

Filename C:\EACrip\Kamelot - Poetry for the Poisoned-Live at Wacken 2010.wav

Peak level 100.0 %
Extraction speed 0.3 X
Range quality 99.9 %
Test CRC 686D44A4
Copy CRC F4DFB9D1
Copy OK

No errors occurred


AccurateRip summary

Track 1 cannot be verified as accurate (confidence 2) [AC1D5BE0], AccurateRip returned [425E2D89]
Track 2 cannot be verified as accurate (confidence 2) [87706DF6], AccurateRip returned [CEE0C259]
Track 3 cannot be verified as accurate (confidence 2) [09019E72], AccurateRip returned [4F661864]
Track 4 cannot be verified as accurate (confidence 2) [A7E45FE4], AccurateRip returned [0C273B59]
Track 5 cannot be verified as accurate (confidence 2) [E6F6155E], AccurateRip returned [71E9F4CE]
Track 6 cannot be verified as accurate (confidence 2) [21F8D6A9], AccurateRip returned [A6C926F8]
Track 7 cannot be verified as accurate (confidence 2) [5745E508], AccurateRip returned [FF712156]
Track 8 cannot be verified as accurate (confidence 2) [E10E7E76], AccurateRip returned [AA82A8B6]

No tracks could be verified as accurate
You may have a different pressing from the one(s) in the database

End of status report


Прошу обратить внимание на то, что весь материал, представленный выше, предназначен исключительно для ознакомления! Приобретайте, пожалуйста, легальные диски, которые вне всякого сомнения станут достойным украшением вашей коллекции!

Re-UP

Theatres Des Vampires - Pleasure and Pain (2005)