Subcategories

Communic - The Bottom Deep (2011)

Posted By: rd
Communic - The Bottom Deep (2011)

Communic - The Bottom Deep (2011)
EAC Rip | FLAC + CUE + LOG | 367 Mb | Covers | 60:18
Genre: Progressive Metal

Работа стала "альбомом месяца" в журнале Rock Hard и заняла в тамошнем "саундчеке" первое место!


Label: Irond / Nuclear Blast

Tracklist:

01. Facing Tomorrow
02. Denial
03. Flood River Blood
04. Voyage Of Discovery
05. In Silence With My Scars
06. My Fallen
07. Destroyer Of Bloodlines
08. Wayward Soul
09. The Bottom Deep
10. In Union We Stand (bonus track)

FLAC

FSonic 1 FSonic 2 FSonic 3

Инфа для восстановления и сканы в комплекте. Части взаимозаменяемы.
Information for recovery & covers included. All parts are interchangeable


Exact Audio Copy V0.99 prebeta 5 from 4. May 2009

EAC extraction logfile from 30. July 2011, 19:35

Communic / The Bottom Deep

Used drive : PLEXTOR DVDR PX-860A Adapter: 0 ID: 0

Read mode : Secure
Utilize accurate stream : Yes
Defeat audio cache : Yes
Make use of C2 pointers : No

Read offset correction : 96
Overread into Lead-In and Lead-Out : No
Fill up missing offset samples with silence : Yes
Delete leading and trailing silent blocks : No
Null samples used in CRC calculations : Yes
Used interface : Installed external ASPI interface

Used output format : User Defined Encoder
Selected bitrate : 320 kBit/s
Quality : High
Add ID3 tag : Yes
Command line compressor : C:\Program Files\Exact Audio Copy\FLAC.EXE
Additional command line options : -6 -V %s


TOC of the extracted CD

Track | Start | Length | Start sector | End sector
––––––––––––––––––––––––––––-
1 | 0:00.00 | 7:44.14 | 0 | 34813
2 | 7:44.14 | 6:34.03 | 34814 | 64366
3 | 14:18.17 | 5:16.21 | 64367 | 88087
4 | 19:34.38 | 6:50.72 | 88088 | 118909
5 | 26:25.35 | 6:23.19 | 118910 | 147653
6 | 32:48.54 | 6:53.56 | 147654 | 178684
7 | 39:42.35 | 5:49.44 | 178685 | 204903
8 | 45:32.04 | 7:03.20 | 204904 | 236648
9 | 52:35.24 | 2:38.38 | 236649 | 248536
10 | 55:13.62 | 5:04.36 | 248537 | 271372


Range status and errors

Selected range

Filename J:\MUSIC\Communic - The Bottom Deep.wav

Peak level 96.6 %
Range quality 100.0 %
Test CRC 7BA3637A
Copy CRC 7BA3637A
Copy OK

No errors occurred


AccurateRip summary

Track 1 not present in database
Track 2 not present in database
Track 3 not present in database
Track 4 not present in database
Track 5 not present in database
Track 6 not present in database
Track 7 not present in database
Track 8 not present in database
Track 9 not present in database
Track 10 not present in database

None of the tracks are present in the AccurateRip database

End of status report


Прошу обратить внимание на то, что весь материал, представленный выше, предназначен исключительно для ознакомления! Приобретайте, пожалуйста, легальные диски, которые вне всякого сомнения станут достойным украшением вашей коллекции!