Subcategories

Decapitated - Carnival Is Forever (2011)

Posted By: rd
Decapitated - Carnival Is Forever (2011)

Decapitated - Carnival Is Forever (2011)
EAC Rip | FLAC + CUE + LOG | 367 Mb | Covers | 42:33
Genre: Death Metal

Альбом был назван в февральском номере журнала Decibel одним из "двадцати пяти самых ожидаемых альбомов 2011 года".

Label: Irond / Nuclear Blast

Tracklist:

1. The Knife
2. United
3. Carnival Is Forever
4. Homo Sum
5. 404
6. A View From A Hole
7. Pest
8. Silence

FLAC

FSonic 1 FSonic 2

MP3

Инфа для восстановления и сканы в комплекте. Части взаимозаменяемы.
Information for recovery & covers included. All parts are interchangeable


Exact Audio Copy V1.0 beta 1 from 15. November 2010

EAC extraction logfile from 30. July 2011, 0:38

DECAPITATED / Carnival Is Forever

Used drive : MATSHITABD-CMB UJ242AS Adapter: 0 ID: 1

Read mode : Secure
Utilize accurate stream : Yes
Defeat audio cache : Yes
Make use of C2 pointers : No

Read offset correction : 103
Overread into Lead-In and Lead-Out : No
Fill up missing offset samples with silence : Yes
Delete leading and trailing silent blocks : No
Null samples used in CRC calculations : Yes
Used interface : Native Win32 interface for Win NT & 2000

Used output format : User Defined Encoder
Selected bitrate : 32 kBit/s
Quality : High
Add ID3 tag : Yes
Command line compressor : C:\Program Files (x86)\Exact Audio Copy\Flac\flac.exe
Additional command line options : -6 -V %s


TOC of the extracted CD

Track | Start | Length | Start sector | End sector
––––––––––––––––––––––––––––-
1 | 0:00.00 | 4:31.73 | 0 | 20397
2 | 4:31.73 | 5:24.14 | 20398 | 44711
3 | 9:56.12 | 8:49.02 | 44712 | 84388
4 | 18:45.14 | 4:33.22 | 84389 | 104885
5 | 23:18.36 | 5:08.56 | 104886 | 128041
6 | 28:27.17 | 6:11.03 | 128042 | 155869
7 | 34:38.20 | 3:36.47 | 155870 | 172116
8 | 38:14.67 | 4:18.23 | 172117 | 191489


Range status and errors

Selected range

Filename C:\EACrip\DECAPITATED - Carnival Is Forever.wav

Peak level 100.0 %
Extraction speed 0.2 X
Range quality 100.0 %
Test CRC 6D06281B
Copy CRC 6D06281B
Copy OK

No errors occurred


AccurateRip summary

Track 1 not present in database
Track 2 not present in database
Track 3 not present in database
Track 4 not present in database
Track 5 not present in database
Track 6 not present in database
Track 7 not present in database
Track 8 not present in database

None of the tracks are present in the AccurateRip database

End of status report


Прошу обратить внимание на то, что весь материал, представленный выше, предназначен исключительно для ознакомления! Приобретайте, пожалуйста, легальные диски, которые вне всякого сомнения станут достойным украшением вашей коллекции!