Subcategories

The Joe Perry Project - Let the Music Do the Talking (1980)

Posted By: rd
The Joe Perry Project - Let the Music Do the Talking (1980)

The Joe Perry Project - Let the Music Do the Talking (1980)
EAC Rip | FLAC + CUE + LOG | 291 Mb | Covers | 38:08
Genre: Hard Rock

Let the Music Do the Talking is the first of four albums by The Joe Perry Project. It was also the most successful, selling approximately 250,000 copies in the United States.


Release Date: March 1980
Label: Pirate Label


Band:

Ralph Morman - Vocals
Joe Perry - Guitar, Vocals, Keyboards, Synthesizers
David Hull - Bass, Vocals
Ronnie Stewart - Drums, Percussion

Tracklist:

"Let the Music Do the Talking" - 4:42
"Conflict Of Interest" - 4:43
"Discount Dogs" - 3:42 (Perry, Ralph Morman)
"Shooting Star" - 3:39
"Break Song" - 2:06 (Perry, David Hull, Ronnie Stewart)
"Rockin' Train" - 6:02 (Perry, Morman)
"The Mist Is Rising" - 6:30
"Ready On The Firing Line" - 3:54
"Life At A Glance" - 2:41

FLAC

FSonic 1 FSonic 2

Инфа для восстановления и сканы в комплекте. Части взаимозаменяемы.
Information for recovery & covers included. All parts are interchangeable


Exact Audio Copy V0.99 prebeta 5 from 4. May 2009

EAC extraction logfile from 30. July 2011, 22:23

The Joe Perry Project / Let The Music Do The Talking

Used drive : PLEXTOR DVDR PX-860A Adapter: 0 ID: 0

Read mode : Secure
Utilize accurate stream : Yes
Defeat audio cache : Yes
Make use of C2 pointers : No

Read offset correction : 96
Overread into Lead-In and Lead-Out : No
Fill up missing offset samples with silence : Yes
Delete leading and trailing silent blocks : No
Null samples used in CRC calculations : Yes
Used interface : Installed external ASPI interface

Used output format : User Defined Encoder
Selected bitrate : 320 kBit/s
Quality : High
Add ID3 tag : Yes
Command line compressor : C:\Program Files\Exact Audio Copy\FLAC.EXE
Additional command line options : -6 -V %s


TOC of the extracted CD

Track | Start | Length | Start sector | End sector
––––––––––––––––––––––––––––-
1 | 0:00.00 | 4:43.15 | 0 | 21239
2 | 4:43.15 | 4:43.45 | 21240 | 42509
3 | 9:26.60 | 3:42.65 | 42510 | 59224
4 | 13:09.50 | 3:39.05 | 59225 | 75654
5 | 16:48.55 | 2:06.70 | 75655 | 85174
6 | 18:55.50 | 6:02.15 | 85175 | 112339
7 | 24:57.65 | 6:29.20 | 112340 | 141534
8 | 31:27.10 | 3:55.70 | 141535 | 159229
9 | 35:23.05 | 2:45.60 | 159230 | 171664


Range status and errors

Selected range

Filename J:\MUSIC\The Joe Perry Project - Let The Music Do The Talking.wav

Peak level 95.2 %
Range quality 100.0 %
Test CRC 394193A0
Copy CRC 394193A0
Copy OK

No errors occurred


AccurateRip summary

Track 1 cannot be verified as accurate (confidence 1) [D67E11B0], AccurateRip returned [189D5824]
Track 2 cannot be verified as accurate (confidence 1) [1ECBC2FF], AccurateRip returned [7CE3D73F]
Track 3 cannot be verified as accurate (confidence 1) [AB56A78E], AccurateRip returned [8758D2BE]
Track 4 cannot be verified as accurate (confidence 1) [569C7464], AccurateRip returned [F4F46A05]
Track 5 cannot be verified as accurate (confidence 1) [ED4A47B7], AccurateRip returned [03209B31]
Track 6 cannot be verified as accurate (confidence 1) [8DA2A2D1], AccurateRip returned [469DC0AD]
Track 7 cannot be verified as accurate (confidence 1) [064249AD], AccurateRip returned [B06AAF77]
Track 8 cannot be verified as accurate (confidence 1) [54780469], AccurateRip returned [46AEE8CB]
Track 9 cannot be verified as accurate (confidence 1) [E223FB36], AccurateRip returned [DAF440AB]

No tracks could be verified as accurate
You may have a different pressing from the one(s) in the database

End of status report


Прошу обратить внимание на то, что весь материал, представленный выше, предназначен исключительно для ознакомления! Приобретайте, пожалуйста, легальные диски, которые вне всякого сомнения станут достойным украшением вашей коллекции!

Bonus

Обычным способом рипнуть не смог… Рипнул Nero.

The Joe Perry Project - I've Got The Rock'n' Rolls Again (1983)

The Joe Perry Project - Let the Music Do the Talking (1980)


NRG

FSonic 1 FSonic 2