Subcategories

The Joe Perry Project - I've Got The Rock'n' Rolls Again (1981)

Posted By: rd
The Joe Perry Project - I've Got The Rock'n' Rolls Again (1981)

The Joe Perry Project - I've Got The Rock'n' Rolls Again (1981)
EAC Rip | FLAC + CUE + LOG | 278 Mb | Covers | 38:50
Genre: Hard Rock

"I've Got the Rock'n'Rolls Again" is the second studio album by The Joe Perry Project.


Label: Pirate Label

Band:

Joe Perry - Guitars, Vocals (Lead on 10 and 5)
Charlie Farren - Rhythm Guitar, Vocals
David Hull - Bass, Vocals (Lead on 4 and 8)
Ronnie Stewart - Drums, Percussion

Tracklist:

"East Coast, West Coast" – 3:06
"No Substitute For Arrogance" – 3:25
"I've Got The Rock'N'Rolls Again" – 4:34
"Buzz Buzz" – 3:41
"Soldier Of Fortune" – 3:05
"TV Police" – 4:11
"Listen To The Rock" – 3:20
"Dirty Little Things" – 3:42
"Play The Game" – 5:20
"South Station Blues" – 4:10

FLAC

FSonic 1 FSonic 2

Инфа для восстановления и сканы в комплекте. Части взаимозаменяемы.
Information for recovery & covers included. All parts are interchangeable


Exact Audio Copy V1.0 beta 1 from 15. November 2010

EAC extraction logfile from 30. July 2011, 20:04

The Joe Perry Project / I've Got The Rock'n' Rolls Again

Used drive : MATSHITABD-CMB UJ242AS Adapter: 0 ID: 1

Read mode : Secure
Utilize accurate stream : Yes
Defeat audio cache : Yes
Make use of C2 pointers : No

Read offset correction : 103
Overread into Lead-In and Lead-Out : No
Fill up missing offset samples with silence : Yes
Delete leading and trailing silent blocks : No
Null samples used in CRC calculations : Yes
Used interface : Native Win32 interface for Win NT & 2000

Used output format : User Defined Encoder
Selected bitrate : 32 kBit/s
Quality : High
Add ID3 tag : Yes
Command line compressor : C:\Program Files (x86)\Exact Audio Copy\Flac\flac.exe
Additional command line options : -6 -V %s


TOC of the extracted CD

Track | Start | Length | Start sector | End sector
––––––––––––––––––––––––––––-
1 | 0:00.00 | 3:08.05 | 0 | 14104
2 | 3:08.05 | 3:25.05 | 14105 | 29484
3 | 6:33.10 | 4:36.30 | 29485 | 50214
4 | 11:09.40 | 3:41.15 | 50215 | 66804
5 | 14:50.55 | 3:05.50 | 66805 | 80729
6 | 17:56.30 | 4:12.60 | 80730 | 99689
7 | 22:09.15 | 3:22.60 | 99690 | 114899
8 | 25:32.00 | 3:42.35 | 114900 | 131584
9 | 29:14.35 | 5:22.30 | 131585 | 155764
10 | 34:36.65 | 4:13.60 | 155765 | 174799


Range status and errors

Selected range

Filename C:\EACrip\The Joe Perry Project - I've Got The Rock'n' Rolls Again.wav

Peak level 97.3 %
Extraction speed 0.1 X
Range quality 100.0 %
Test CRC 1DAD70A3
Copy CRC 636BBA3A
Copy OK

No errors occurred


AccurateRip summary

Track 1 not present in database
Track 2 not present in database
Track 3 not present in database
Track 4 not present in database
Track 5 not present in database
Track 6 not present in database
Track 7 not present in database
Track 8 not present in database
Track 9 not present in database
Track 10 not present in database

None of the tracks are present in the AccurateRip database

End of status report


Прошу обратить внимание на то, что весь материал, представленный выше, предназначен исключительно для ознакомления! Приобретайте, пожалуйста, легальные диски, которые вне всякого сомнения станут достойным украшением вашей коллекции!

Bonus

Обычным способом рипнуть не смог… Рипнул Nero.

The Joe Perry Project - I've Got The Rock'n' Rolls Again (1983)

The Joe Perry Project - I've Got The Rock'n' Rolls Again (1981)


NRG

FSonic 1 FSonic 2