Subcategories

Queensryche - Dedicated to Chaos (2011)

Posted By: rd
Queensryche - Dedicated to Chaos (2011)

Queensryche - Dedicated to Chaos (2011)
EAC Rip | FLAC + CUE + LOG | 423 Mb | Covers | 54:10
Genre: Progressive Metal

Dedicated to Chaos is the twelfth studio album by American progressive metal band Queensrяche. The album was released first in Japan on June 21, 2011, and a week later in the USA on June 28, 2011, and is the band's first album for Roadrunner Records' Loud & Proud label.


Release Date: June 21, 2011
Label: Pirate Label


Tracklist:

1. "Get Started" Jason Slater, Geoff Tate 3:33
2. "Hot Spot Junkie" Eddie Jackson, Geoff Tate 3:57
3. "Got It Bad" Jason Slater, Geoff Tate 3:45
4. "Higher" Randy Gane, Geoff Tate 4:00
5. "Wot We Do" Jason Slater, Randy Gane, Geoff Tate 3:45
6. "Around the World" Kelly Gray, Scott Rockenfield, Geoff Tate 5:10
7. "Drive" Jeff Carrell, Kelly Gray, Scott Rockenfield, Geoff Tate 4:53
8. "At the Edge" Scott Rockenfield, Geoff Tate 6:03
9. "I Take You" Jason Slater, Geoff Tate 3:50
10. "Retail Therapy" Jason Slater, Geoff Tate 4:13
11. "The Lie" Kelly Gray, Eddie Jackson, Geoff Tate 4:18
12. "Big Noize" Kelly Gray, Scott Rockenfield, Geoff Tate 6:35

FLAC

FSonic 1 FSonic 2

Инфа для восстановления и сканы в комплекте. Части взаимозаменяемы.
Information for recovery & covers included. All parts are interchangeable


Exact Audio Copy V0.99 prebeta 5 from 4. May 2009

EAC extraction logfile from 23. July 2011, 21:27

Queensryche / Dedicated to Chaos

Used drive : PLEXTOR DVDR PX-860A Adapter: 0 ID: 0

Read mode : Secure
Utilize accurate stream : Yes
Defeat audio cache : Yes
Make use of C2 pointers : No

Read offset correction : 96
Overread into Lead-In and Lead-Out : No
Fill up missing offset samples with silence : Yes
Delete leading and trailing silent blocks : No
Null samples used in CRC calculations : Yes
Used interface : Installed external ASPI interface

Used output format : User Defined Encoder
Selected bitrate : 1024 kBit/s
Quality : High
Add ID3 tag : Yes
Command line compressor : C:\Program Files\Exact Audio Copy\FLAC.EXE
Additional command line options : -6 -V %s


TOC of the extracted CD

Track | Start | Length | Start sector | End sector
––––––––––––––––––––––––––––-
1 | 0:00.00 | 3:33.12 | 0 | 15986
2 | 3:33.12 | 3:57.66 | 15987 | 33827
3 | 7:31.03 | 3:45.02 | 33828 | 50704
4 | 11:16.05 | 4:00.64 | 50705 | 68768
5 | 15:16.69 | 3:45.61 | 68769 | 85704
6 | 19:02.55 | 5:09.74 | 85705 | 108953
7 | 24:12.54 | 4:52.40 | 108954 | 130893
8 | 29:05.19 | 6:06.61 | 130894 | 158404
9 | 35:12.05 | 3:51.05 | 158405 | 175734
10 | 39:03.10 | 4:13.57 | 175735 | 194766
11 | 43:16.67 | 4:18.04 | 194767 | 214120
12 | 47:34.71 | 6:35.11 | 214121 | 243756


Range status and errors

Selected range

Filename J:\MUSIC\Queensryche - Dedicated to Chaos.wav

Peak level 99.9 %
Range quality 99.9 %
Test CRC C92C890A
Copy CRC C92C890A
Copy OK

No errors occurred


AccurateRip summary

Track 1 not present in database
Track 2 not present in database
Track 3 not present in database
Track 4 not present in database
Track 5 not present in database
Track 6 not present in database
Track 7 not present in database
Track 8 not present in database
Track 9 not present in database
Track 10 not present in database
Track 11 not present in database
Track 12 not present in database

None of the tracks are present in the AccurateRip database

End of status report


Прошу обратить внимание на то, что весь материал, представленный выше, предназначен исключительно для ознакомления! Приобретайте, пожалуйста, легальные диски, которые вне всякого сомнения станут достойным украшением вашей коллекции!