Subcategories

Danger Zone - Line Of Fire (2011)

Posted By: rd
Danger Zone - Line Of Fire (2011)

Danger Zone - Line Of Fire (2011)
EAC Rip | APE + CUE + LOG | 348 Mb | MP3 320 CBR | 135 Mb | Covers | 41:32
Genre: Melodic Hard Rock

Melodic Hard Rock from Italy


Label: Pirate Label

Band:

Giacomo Gigantelli - vocals
Roberto Priori - lead guitar
Stefano Peresson - guitars, keyboards
Stefano Gregori - bass guitar
Paolo Palmieri - drums

Mark Cobrin - background vocals
Stephan Galfas - background vocals
James Palace - background vocals
Michael Palace - background vocals
Noah Baron - background vocals
Grace Jones - background vocals on "Fingers"
Jody Gray - additional keyboards & guitar, background vocals

Tracklist:

01. Line Of Fire
02. Children Of The Revolution
03. Walk Away
04. Fingers
05. State Of The Heart
06. Hardline
07. The Hunger
08. Let Me Rock
09. That's Why I Fell In Love With You
10. Love Dies Hard

MP3

FSonic

FLAC

FSonic 1 FSonic 2

Инфа для восстановления и сканы в комплекте. Части взаимозаменяемы.
Information for recovery & covers included. All parts are interchangeable


Exact Audio Copy V0.99 prebeta 5 from 4. May 2009

EAC extraction logfile from 24. March 2011, 23:34

Danger Zone / Line Of Fire

Used drive : MATSHITABD-CMB UJ242AS Adapter: 0 ID: 1

Read mode : Secure
Utilize accurate stream : Yes
Defeat audio cache : Yes
Make use of C2 pointers : No

Read offset correction : 103
Overread into Lead-In and Lead-Out : No
Fill up missing offset samples with silence : Yes
Delete leading and trailing silent blocks : No
Null samples used in CRC calculations : Yes
Used interface : Native Win32 interface for Win NT & 2000

Used output format : Monkey's Audio Lossless Encoder
Selected bitrate : Normal Lossless Compression
Quality : High
Add ID3 tag : Yes
Command line compressor : C:\Program Files (x86)\Exact Audio Copy\MAC.exe


TOC of the extracted CD

Track | Start | Length | Start sector | End sector
––––––––––––––––––––––––––––-
1 | 0:00.00 | 4:31.65 | 0 | 20389
2 | 4:31.65 | 3:06.11 | 20390 | 34350
3 | 7:38.01 | 5:05.42 | 34351 | 57267
4 | 12:43.43 | 4:08.72 | 57268 | 75939
5 | 16:52.40 | 4:10.37 | 75940 | 94726
6 | 21:03.02 | 3:54.05 | 94727 | 112281
7 | 24:57.07 | 3:59.48 | 112282 | 130254
8 | 28:56.55 | 2:50.49 | 130255 | 143053
9 | 31:47.29 | 4:54.72 | 143054 | 165175
10 | 36:42.26 | 4:50.24 | 165176 | 186949


Range status and errors

Selected range

Filename C:\EACrip\Danger Zone - Line Of Fire.wav

Peak level 97.2 %
Range quality 100.0 %
Copy CRC 9C86739B
Copy OK

No errors occurred


AccurateRip summary

Track 1 not present in database
Track 2 not present in database
Track 3 not present in database
Track 4 not present in database
Track 5 not present in database
Track 6 not present in database
Track 7 not present in database
Track 8 not present in database
Track 9 not present in database
Track 10 not present in database

None of the tracks are present in the AccurateRip database

End of status report


Прошу обратить внимание на то, что весь материал, представленный выше, предназначен исключительно для ознакомления! Приобретайте, пожалуйста, легальные диски, которые вне всякого сомнения станут достойным украшением вашей коллекции!