Subcategories

Van Stephenson - Righteous Anger (1984)

Posted By: rd
Van Stephenson - Righteous Anger (1984)

Van Stephenson - Righteous Anger (1984)
EAC Rip | APE + CUE + LOG | 302 Mb | MP3 320 CBR | 115 Mb | Covers | 37:34
Genre: Melodic Rock, AOR

Van Wesley Stephenson was an American singer-songwriter. He scored two US Billboard Hot 100 hits in the 1980s as a solo artist, and later became tenor vocalist in the country music band BlackHawk in the 1990s. In addition, Van co-wrote several singles for other artists, such as Restless Heart. Van died of Melanoma in 2001. Second album.

Label: Pirate Label

Band:

Van Stephenson lead vocals
Mike Baird drums
Dennis Belfield bass
Dan Huff guitars
ALan Pasqua keyboards and synthesizers
Ken Mims additional guitars
George Doering additional guitars
Mike Hanna additional keyboards
Richard Landis percussion
Tom Kelly additional backing vocals
Bill Champlin additional backing vocals
Phil Brown additional backing vocals

Tracklist:

1 Modern Day Delilah
2 I Know Who You Are (And I Saw What You Did)
3 What the Big Girls Do
4 Don't Do That
5 Others Only Dream
6 Righteous Anger
7 Cure Will Kill You
8 You've Been Lied to Before
9 Heart Over Mind
10 All American Boy

MP3

FSonic

APE

FSonic 1 FSonic 2

Инфа для восстановления и сканы в комплекте. Части взаимозаменяемы.
Information for recovery & covers included. All parts are interchangeable


Exact Audio Copy V0.99 prebeta 5 from 4. May 2009

EAC extraction logfile from 20. March 2011, 15:21

Van Stephenson / Righteous Anger

Used drive : MATSHITABD-CMB UJ242AS Adapter: 0 ID: 1

Read mode : Secure
Utilize accurate stream : Yes
Defeat audio cache : Yes
Make use of C2 pointers : No

Read offset correction : 103
Overread into Lead-In and Lead-Out : No
Fill up missing offset samples with silence : Yes
Delete leading and trailing silent blocks : No
Null samples used in CRC calculations : Yes
Used interface : Native Win32 interface for Win NT & 2000

Used output format : Monkey's Audio Lossless Encoder
Selected bitrate : Normal Lossless Compression
Quality : High
Add ID3 tag : Yes
Command line compressor : C:\Program Files (x86)\Exact Audio Copy\MAC.exe


TOC of the extracted CD

Track | Start | Length | Start sector | End sector
––––––––––––––––––––––––––––-
1 | 0:00.00 | 4:12.45 | 0 | 18944
2 | 4:12.45 | 4:03.25 | 18945 | 37194
3 | 8:15.70 | 3:39.35 | 37195 | 53654
4 | 11:55.30 | 3:28.10 | 53655 | 69264
5 | 15:23.40 | 3:25.15 | 69265 | 84654
6 | 18:48.55 | 3:40.00 | 84655 | 101154
7 | 22:28.55 | 4:26.30 | 101155 | 121134
8 | 26:55.10 | 3:46.30 | 121135 | 138114
9 | 30:41.40 | 4:09.30 | 138115 | 156819
10 | 34:50.70 | 2:43.65 | 156820 | 169109


Range status and errors

Selected range

Filename C:\EACrip\Van Stephenson - Righteous Anger.wav

Peak level 100.0 %
Range quality 100.0 %
Test CRC A13EB4FF
Copy CRC A13EB4FF
Copy OK

No errors occurred


AccurateRip summary

Track 1 not present in database
Track 2 not present in database
Track 3 not present in database
Track 4 not present in database
Track 5 not present in database
Track 6 not present in database
Track 7 not present in database
Track 8 not present in database
Track 9 not present in database
Track 10 not present in database

None of the tracks are present in the AccurateRip database

End of status report


Прошу обратить внимание на то, что весь материал, представленный выше, предназначен исключительно для ознакомления! Приобретайте, пожалуйста, легальные диски, которые вне всякого сомнения станут достойным украшением вашей коллекции!