Subcategories

Van Stephenson - Suspicious Heart (1986)

Posted By: rd
Van Stephenson - Suspicious Heart (1986)

Van Stephenson - Suspicious Heart (1986)
EAC Rip | APE + CUE + LOG | 328 Mb | MP3 320 CBR | 121 Mb | Covers | 41:40
Genre: Melodic Rock, AOR

Van Wesley Stephenson was an American singer-songwriter. He scored two US Billboard Hot 100 hits in the 1980s as a solo artist, and later became tenor vocalist in the country music band BlackHawk in the 1990s. In addition, Van co-wrote several singles for other artists, such as Restless Heart. Van died of Melanoma in 2001. Third solo album.


Label: Pirate Label

Band:

Van Stephenson vocals
Mike Baird drums
Dennis Belfield bass
Dan Huff guitars
Alan Pasqua keyboards, synthesizers
Michael Fisher percussion
Richard Landis percussion, additional keyboards and synthesizers
George Doering additional guitars
Richard Gibbs additional keyboards and synthesizers
Reed Nielsen additional keyboards and synthesizers
Dave Innis additional keyboards and synthesizers
Tom Kelly backing vocals
Tommy Funderburk backing vocals
Waddy Wachtel guest guitars
Michael Landau guest guitars

Tracklist:

1. We're Doing Alright 3:50
2. (We Should Be) Together Tonight 3:42
3. Suspicious Heart 5:06
4. Never Enough Night 4:46
5. Confidentially Yours 3:58
6. Desperate Hours 4:20
7. Dancing With Danger 3:50
8. Fist Full of Heat 4:40
9. Make It Glamorous 3:42
10. No Secrets 3:42

MP3

FSonic

APE

FSonic 1 FSonic 2

Инфа для восстановления и сканы в комплекте. Части взаимозаменяемы.
Information for recovery & covers included. All parts are interchangeable


Exact Audio Copy V0.99 prebeta 5 from 4. May 2009

EAC extraction logfile from 20. March 2011, 21:41

Van Stephenson / Suspicious Heart

Used drive : MATSHITABD-CMB UJ242AS Adapter: 0 ID: 1

Read mode : Secure
Utilize accurate stream : Yes
Defeat audio cache : Yes
Make use of C2 pointers : No

Read offset correction : 103
Overread into Lead-In and Lead-Out : No
Fill up missing offset samples with silence : Yes
Delete leading and trailing silent blocks : No
Null samples used in CRC calculations : Yes
Used interface : Native Win32 interface for Win NT & 2000

Used output format : Monkey's Audio Lossless Encoder
Selected bitrate : Normal Lossless Compression
Quality : High
Add ID3 tag : Yes
Command line compressor : C:\Program Files (x86)\Exact Audio Copy\MAC.exe


TOC of the extracted CD

Track | Start | Length | Start sector | End sector
––––––––––––––––––––––––––––-
1 | 0:00.00 | 3:49.60 | 0 | 17234
2 | 3:49.60 | 3:46.30 | 17235 | 34214
3 | 7:36.15 | 5:08.20 | 34215 | 57334
4 | 12:44.35 | 4:28.35 | 57335 | 77469
5 | 17:12.70 | 3:59.20 | 77470 | 95414
6 | 21:12.15 | 4:23.40 | 95415 | 115179
7 | 25:35.55 | 3:52.70 | 115180 | 132649
8 | 29:28.50 | 4:44.20 | 132650 | 153969
9 | 34:12.70 | 3:41.45 | 153970 | 170589
10 | 37:54.40 | 3:45.65 | 170590 | 187529


Range status and errors

Selected range

Filename C:\EACrip\Van Stephenson - Suspicious Heart.wav

Peak level 100.0 %
Range quality 100.0 %
Test CRC E248C9B5
Copy CRC E248C9B5
Copy OK

No errors occurred


AccurateRip summary

Track 1 not present in database
Track 2 not present in database
Track 3 not present in database
Track 4 not present in database
Track 5 not present in database
Track 6 not present in database
Track 7 not present in database
Track 8 not present in database
Track 9 not present in database
Track 10 not present in database

None of the tracks are present in the AccurateRip database

End of status report

Прошу обратить внимание на то, что весь материал, представленный выше, предназначен исключительно для ознакомления! Приобретайте, пожалуйста, легальные диски, которые вне всякого сомнения станут достойным украшением вашей коллекции!