Subcategories

Vicious Rumors - Soldiers Of The Night (1986)

Posted By: rd
Vicious Rumors - Soldiers Of The Night (1986)

Vicious Rumors - Soldiers Of The Night (1986)
EAC Rip | FLAC + CUE + LOG | 290 Mb | MP3 320 CBR | 104 Mb | Covers | 38:51
Genre: Heavy/Power Metal

Soldiers of the Night is the debut album by heavy metal band Vicious Rumors. The album is notable as being the only Vicious Rumors album to feature vocalist Gary St Pierre and renowned virtuoso guitarist Vinnie Moore.


Release Date: May 25th, 1986
Label: Pirate Label


Band:

Gary St. Pierre Vocals
Geoff Thorpe Guitars
Vinnie Moore Guitars
Dave Starr Bass
Larry Howe Drums

Tracklist:

1. Premonition 01:04
2. Ride (Into the Sun) 03:44
3. Medusa 03:57
4. Soldiers of the Night 04:22
5. Murder 04:01
6. March or Die 04:37
7. Blitz the World 03:38
8. Invader 02:51
9. In Fire 03:22
10. Domestic Bliss 03:40
11. Blistering Winds 03:27

MP3

FSonic

or

FServe

FLAC

FSonic 1 FSonic 2

or

FServe 1 FServe 2

Инфа для восстановления и сканы в комплекте. Части взаимозаменяемы.
Information for recovery & covers included. All parts are interchangeable


Exact Audio Copy V0.99 prebeta 5 from 4. May 2009

EAC extraction logfile from 3. July 2011, 20:11

Vicious Rumors / Soldiers Of The Night

Used drive : PLEXTOR DVDR PX-860A Adapter: 0 ID: 0

Read mode : Secure
Utilize accurate stream : Yes
Defeat audio cache : Yes
Make use of C2 pointers : No

Read offset correction : 96
Overread into Lead-In and Lead-Out : No
Fill up missing offset samples with silence : Yes
Delete leading and trailing silent blocks : No
Null samples used in CRC calculations : Yes
Used interface : Installed external ASPI interface

Used output format : User Defined Encoder
Selected bitrate : 1024 kBit/s
Quality : High
Add ID3 tag : Yes
Command line compressor : C:\Program Files\Exact Audio Copy\FLAC.EXE
Additional command line options : -6 -V %s


TOC of the extracted CD

Track | Start | Length | Start sector | End sector
––––––––––––––––––––––––––––-
1 | 0:00.00 | 1:03.30 | 0 | 4754
2 | 1:03.30 | 3:43.57 | 4755 | 21536
3 | 4:47.12 | 3:57.35 | 21537 | 39346
4 | 8:44.47 | 4:22.55 | 39347 | 59051
5 | 13:07.27 | 4:01.40 | 59052 | 77166
6 | 17:08.67 | 4:41.05 | 77167 | 98246
7 | 21:49.72 | 3:37.30 | 98247 | 114551
8 | 25:27.27 | 2:51.60 | 114552 | 127436
9 | 28:19.12 | 3:22.03 | 127437 | 142589
10 | 31:41.15 | 3:42.17 | 142590 | 159256
11 | 35:23.32 | 3:28.03 | 159257 | 174859


Range status and errors

Selected range

Filename J:\MUSIC\Vicious Rumors - Soldiers Of The Night.wav

Peak level 100.0 %
Range quality 100.0 %
Test CRC 9D497B3F
Copy CRC 9D497B3F
Copy OK

No errors occurred


AccurateRip summary

Track 1 cannot be verified as accurate (confidence 2) [CFEEF76A], AccurateRip returned [12834CEA]
Track 2 cannot be verified as accurate (confidence 2) [B9DD997F], AccurateRip returned [74B446FF]
Track 3 cannot be verified as accurate (confidence 2) [29BC1A57], AccurateRip returned [D1682E37]
Track 4 cannot be verified as accurate (confidence 2) [1127C192], AccurateRip returned [33C16BB2]
Track 5 cannot be verified as accurate (confidence 2) [E9612FE9], AccurateRip returned [9B861989]
Track 6 cannot be verified as accurate (confidence 2) [E4A0C33F], AccurateRip returned [17E9F49F]
Track 7 cannot be verified as accurate (confidence 2) [C762F0EE], AccurateRip returned [7F3A7E4E]
Track 8 cannot be verified as accurate (confidence 2) [668E1AE2], AccurateRip returned [B583C482]
Track 9 cannot be verified as accurate (confidence 2) [2F180B92], AccurateRip returned [04A651F2]
Track 10 cannot be verified as accurate (confidence 2) [35228031], AccurateRip returned [CDFCFDD1]
Track 11 cannot be verified as accurate (confidence 2) [90D55197], AccurateRip returned [652D3FB7]

No tracks could be verified as accurate
You may have a different pressing from the one(s) in the database

End of status report


Прошу обратить внимание на то, что весь материал, представленный выше, предназначен исключительно для ознакомления! Приобретайте, пожалуйста, легальные диски, которые вне всякого сомнения станут достойным украшением вашей коллекции!