Subcategories

Vicious Rumors - Digital Dictator (1988)

Posted By: rd
Vicious Rumors - Digital Dictator (1988)

Vicious Rumors - Digital Dictator (1988)
EAC Rip | FLAC + CUE + LOG | 303 Mb | MP3 320 CBR | 103 Mb | Covers | 38:57
Genre: Heavy/Power Metal

Second album.


Release Date: February 9th, 1988
Label: Pirate Label


Band:

Geoff Thorpe – guitars
Mark McGee – guitars
Carl Albert – vocals
Dave Starr – bass
Larry Howe – drums

Tracklist:

"Replicant" - 1:04
"Digital Dictator" - 3:17
"Minute to Kill" - 3:34
"Towns on Fire" - 4:23
"Lady Took a Chance" - 6:11
"World and Machines" - 5:30
"The Crest" - 2:56
"R.L.H." - 4:00
"Condemned" - 3:53
"Out of the Shadows" - 4:09

MP3

FSonic

or

FServe

FLAC

FSonic 1 FSonic 2

or

FServe 1 FServe 2

Инфа для восстановления и сканы в комплекте. Части взаимозаменяемы.
Information for recovery & covers included. All parts are interchangeable


Exact Audio Copy V0.99 prebeta 5 from 4. May 2009

EAC extraction logfile from 3. July 2011, 21:01

VICIOUS RUMORS / Digital Dictator

Used drive : PLEXTOR DVDR PX-860A Adapter: 0 ID: 0

Read mode : Secure
Utilize accurate stream : Yes
Defeat audio cache : Yes
Make use of C2 pointers : No

Read offset correction : 96
Overread into Lead-In and Lead-Out : No
Fill up missing offset samples with silence : Yes
Delete leading and trailing silent blocks : No
Null samples used in CRC calculations : Yes
Used interface : Installed external ASPI interface

Used output format : User Defined Encoder
Selected bitrate : 1024 kBit/s
Quality : High
Add ID3 tag : Yes
Command line compressor : C:\Program Files\Exact Audio Copy\FLAC.EXE
Additional command line options : -6 -V %s


TOC of the extracted CD

Track | Start | Length | Start sector | End sector
––––––––––––––––––––––––––––-
1 | 0:00.00 | 1:03.70 | 0 | 4794
2 | 1:03.70 | 3:16.32 | 4795 | 19526
3 | 4:20.27 | 3:34.23 | 19527 | 35599
4 | 7:54.50 | 4:22.55 | 35600 | 55304
5 | 12:17.30 | 6:10.62 | 55305 | 83116
6 | 18:28.17 | 5:29.33 | 83117 | 107824
7 | 23:57.50 | 2:55.27 | 107825 | 120976
8 | 26:53.02 | 4:03.10 | 120977 | 139211
9 | 30:56.12 | 3:52.15 | 139212 | 156626
10 | 34:48.27 | 4:09.08 | 156627 | 175309


Range status and errors

Selected range

Filename J:\MUSIC\VICIOUS RUMORS - Digital Dictator.wav

Peak level 100.0 %
Range quality 100.0 %
Test CRC 492E297D
Copy CRC 492E297D
Copy OK

No errors occurred


AccurateRip summary

Track 1 not present in database
Track 2 not present in database
Track 3 not present in database
Track 4 not present in database
Track 5 not present in database
Track 6 not present in database
Track 7 not present in database
Track 8 not present in database
Track 9 not present in database
Track 10 not present in database

None of the tracks are present in the AccurateRip database

End of status report


Прошу обратить внимание на то, что весь материал, представленный выше, предназначен исключительно для ознакомления! Приобретайте, пожалуйста, легальные диски, которые вне всякого сомнения станут достойным украшением вашей коллекции!