Subcategories

Vicious Rumors - Vicious Rumors (1990)

Posted By: rd
Vicious Rumors - Vicious Rumors (1990)

Vicious Rumors - Vicious Rumors (1990)
EAC Rip | FLAC + CUE + LOG | 306 Mb | MP3 320 CBR | 113 Mb | Covers | 39:46
Genre: Heavy/Power Metal

Third album.


Release Date: February 24th, 1990
Label: Pirate Label


Band:

Geoff Thorpe – guitars
Mark McGee – guitars
Carl Albert – vocals
Dave Starr – bass
Larry Howe – drums

Tracklist:

"Don't Wait for Me" - 4:15
"World Church" - 5:08
"On the Edge" - 3:09
"Ship of Fools" - 4:30
"Can You Hear It" - 3:27
"Down to the Temple" - 5:16
"Hellraiser" - 4:20
"Electric Twilight" - 1:54
"Thrill of the Hunt" - 4:01
"Axe and Smash" - 3:46

MP3

FSonic

or

FServe

FLAC

FSonic 1 FSonic 2

or

FServe 1 FServe 2

Инфа для восстановления и сканы в комплекте. Части взаимозаменяемы.
Information for recovery & covers included. All parts are interchangeable


Exact Audio Copy V0.99 prebeta 5 from 4. May 2009

EAC extraction logfile from 3. July 2011, 20:33

VICIOUS RUMORS / Vicious Rumors

Used drive : PLEXTOR DVDR PX-860A Adapter: 0 ID: 0

Read mode : Secure
Utilize accurate stream : Yes
Defeat audio cache : Yes
Make use of C2 pointers : No

Read offset correction : 96
Overread into Lead-In and Lead-Out : No
Fill up missing offset samples with silence : Yes
Delete leading and trailing silent blocks : No
Null samples used in CRC calculations : Yes
Used interface : Installed external ASPI interface

Used output format : User Defined Encoder
Selected bitrate : 1024 kBit/s
Quality : High
Add ID3 tag : Yes
Command line compressor : C:\Program Files\Exact Audio Copy\FLAC.EXE
Additional command line options : -6 -V %s


TOC of the extracted CD

Track | Start | Length | Start sector | End sector
––––––––––––––––––––––––––––-
1 | 0:00.00 | 4:15.52 | 0 | 19176
2 | 4:15.52 | 5:07.05 | 19177 | 42206
3 | 9:22.57 | 3:09.43 | 42207 | 56424
4 | 12:32.25 | 4:30.20 | 56425 | 76694
5 | 17:02.45 | 3:26.40 | 76695 | 92184
6 | 20:29.10 | 5:16.12 | 92185 | 115896
7 | 25:45.22 | 4:19.50 | 115897 | 135371
8 | 30:04.72 | 1:53.73 | 135372 | 143919
9 | 31:58.70 | 4:01.55 | 143920 | 162049
10 | 36:00.50 | 3:45.60 | 162050 | 178984


Range status and errors

Selected range

Filename J:\MUSIC\VICIOUS RUMORS - Vicious Rumors.wav

Peak level 100.0 %
Range quality 100.0 %
Test CRC D6AE2726
Copy CRC D6AE2726
Copy OK

No errors occurred


AccurateRip summary

Track 1 not present in database
Track 2 not present in database
Track 3 not present in database
Track 4 not present in database
Track 5 not present in database
Track 6 not present in database
Track 7 not present in database
Track 8 not present in database
Track 9 not present in database
Track 10 not present in database

None of the tracks are present in the AccurateRip database

End of status report


Прошу обратить внимание на то, что весь материал, представленный выше, предназначен исключительно для ознакомления! Приобретайте, пожалуйста, легальные диски, которые вне всякого сомнения станут достойным украшением вашей коллекции!