Tags
Language
Tags

Joshua Redman, Brad Mehldau, Christian McBride & Brian Blade - RoundAgain (2020)

Posted By: delpotro
Joshua Redman, Brad Mehldau, Christian McBride & Brian Blade - RoundAgain (2020)

Joshua Redman, Brad Mehldau, Christian McBride & Brian Blade - RoundAgain (2020)
EAC Rip | FLAC (tracks+log+.cue) - 282 Mb | MP3 CBR 320 kbps - 109 Mb | 00:44:42
Jazz, Post-Bop | Label: Nonesuch Records

The members of the original Joshua Redman Quartet—Redman (saxophone), Brad Mehldau (piano), Christian McBride (bass), and Brian Blade (drums)—reunite with the July 10, 2020 release of RoundAgain, the group’s first recording since 1994’s MoodSwing. The album features seven newly composed songs: three from Redman, two from Mehldau, and one each from McBride and Blade.

Redman says of his first group as a bandleader, which was together for approximately a year and a half: “I realized almost immediately that this band wouldn’t stay together for very long. They were without a doubt, for our generation, among the most accomplished and innovative on their respective instruments. They were already all in such high demand—everyone wanted to play with them! And they all had such strong and charismatic musical personalities—destined to start soon pursuing their own independent visions. I knew better than anyone else just how incredibly lucky I was to have even that short time with them.” 

In the intervening decades, each has played with one or more of the others on various occasions, but all four had never properly reunited. “I knew it would happen, but I didn’t know when,” Redman admits. “We were all so busy, and we needed the space, both in our schedules and in our creative development.”

“We would have done it ten years ago if it were up to me,” Mehldau insists. “Josh, Christian, and Brian are all my heroes. It’s like playing with The Avengers.” 

Blade adds, “This band is like a turntable where the stylus was lifted but the turntable is still spinning. We just had to drop the needle, and there we were with all of the information we had gathered. It has gotten deeper because of life itself, and because Joshua, Brad, and Christian plumb the depths every day.” 

“These guys have grown exponentially,” McBride insists. “They are super-monsters now, and playing with them gave me a hard look at myself. And when you’re intimate creating art, even if you don’t play together for twenty years, you only need two bars to realize what the feeling is about, because the feeling never leaves.”
Tracklist:
1. Undertow (07:22)
2. Moe Honk (07:11)
3. Silly Little Love Song (07:01)
4. Right Back Round Again (06:00)
5. Floppy Diss (05:22)
6. Father (06:37)
7. Your Part To Play (05:04)

Exact Audio Copy V1.3 from 2. September 2016

EAC extraction logfile from 24. September 2020, 14:53

Joshua Redman, Brad Mehldau, Christian McBride & Brian Blade / RoundAgain

Used drive : PLEXTOR PX-891SAF Adapter: 1 ID: 0

Read mode : Secure
Utilize accurate stream : Yes
Defeat audio cache : Yes
Make use of C2 pointers : No

Read offset correction : 6
Overread into Lead-In and Lead-Out : No
Fill up missing offset samples with silence : Yes
Delete leading and trailing silent blocks : No
Null samples used in CRC calculations : Yes
Used interface : Native Win32 interface for Win NT & 2000
Gap handling : Appended to previous track

Used output format : User Defined Encoder
Selected bitrate : 1024 kBit/s
Quality : High
Add ID3 tag : No
Command line compressor : C:\Program Files (x86)\Exact Audio Copy\Flac\flac.exe
Additional command line options : -8 -V -T "ARTIST=%artist%" -T "TITLE=%title%" -T "ALBUM=%albumtitle%" -T "DATE=%year%" -T "TRACKNUMBER=%tracknr%" -T "GENRE=%genre%" -T "PERFORMER=%albuminterpret%" -T "COMPOSER=%composer%" %haslyrics%–tag-from-file=LYRICS="%lyricsfile%"%haslyrics% -T "ALBUMARTIST=%albumartist%" -T "DISCNUMBER=%cdnumber%" -T "TOTALDISCS=%totalcds%" -T "TOTALTRACKS=%numtracks%" -T "COMMENT=%comment%" %source% -o %dest%


TOC of the extracted CD

Track | Start | Length | Start sector | End sector
––––––––––––––––––––––––––––-
1 | 0:00.00 | 7:22.66 | 0 | 33215
2 | 7:22.66 | 7:11.41 | 33216 | 65581
3 | 14:34.32 | 7:01.72 | 65582 | 97228
4 | 21:36.29 | 6:00.51 | 97229 | 124279
5 | 27:37.05 | 5:22.51 | 124280 | 148480
6 | 32:59.56 | 6:37.31 | 148481 | 178286
7 | 39:37.12 | 5:04.65 | 178287 | 201151


Track 1

Filename D:\#EAC new\#wav+flac\#add\Joshua Redman, Brad Mehldau, Christian McBride & Brian Blade - RoundAgain\01. Joshua Redman, Brad Mehldau, Christian McBride & Brian Blade - Undertow.wav

Pre-gap length 0:00:02.00

Peak level 99.5 %
Extraction speed 5.1 X
Track quality 99.9 %
Test CRC 21788794
Copy CRC 21788794
Accurately ripped (confidence 5) [AB3E40B3] (AR v2)
Copy OK

Track 2

Filename D:\#EAC new\#wav+flac\#add\Joshua Redman, Brad Mehldau, Christian McBride & Brian Blade - RoundAgain\02. Joshua Redman, Brad Mehldau, Christian McBride & Brian Blade - Moe Honk.wav

Peak level 100.0 %
Extraction speed 6.6 X
Track quality 100.0 %
Test CRC F4283C1F
Copy CRC F4283C1F
Accurately ripped (confidence 5) [3E6E3494] (AR v2)
Copy OK

Track 3

Filename D:\#EAC new\#wav+flac\#add\Joshua Redman, Brad Mehldau, Christian McBride & Brian Blade - RoundAgain\03. Joshua Redman, Brad Mehldau, Christian McBride & Brian Blade - Silly Little Love Song.wav

Peak level 99.8 %
Extraction speed 6.6 X
Track quality 99.9 %
Test CRC 09D92638
Copy CRC 09D92638
Accurately ripped (confidence 5) [799EF516] (AR v2)
Copy OK

Track 4

Filename D:\#EAC new\#wav+flac\#add\Joshua Redman, Brad Mehldau, Christian McBride & Brian Blade - RoundAgain\04. Joshua Redman, Brad Mehldau, Christian McBride & Brian Blade - Right Back Round Again.wav

Peak level 100.0 %
Extraction speed 7.9 X
Track quality 100.0 %
Test CRC 959D13A1
Copy CRC 959D13A1
Accurately ripped (confidence 5) [D552DAFF] (AR v2)
Copy OK

Track 5

Filename D:\#EAC new\#wav+flac\#add\Joshua Redman, Brad Mehldau, Christian McBride & Brian Blade - RoundAgain\05. Joshua Redman, Brad Mehldau, Christian McBride & Brian Blade - Floppy Diss.wav

Peak level 100.0 %
Extraction speed 7.2 X
Track quality 99.9 %
Test CRC 8E831BFC
Copy CRC 8E831BFC
Accurately ripped (confidence 5) [15B39ADE] (AR v2)
Copy OK

Track 6

Filename D:\#EAC new\#wav+flac\#add\Joshua Redman, Brad Mehldau, Christian McBride & Brian Blade - RoundAgain\06. Joshua Redman, Brad Mehldau, Christian McBride & Brian Blade - Father.wav

Peak level 99.6 %
Extraction speed 7.9 X
Track quality 99.9 %
Test CRC E159C003
Copy CRC E159C003
Accurately ripped (confidence 5) [0C7B5798] (AR v2)
Copy OK

Track 7

Filename D:\#EAC new\#wav+flac\#add\Joshua Redman, Brad Mehldau, Christian McBride & Brian Blade - RoundAgain\07. Joshua Redman, Brad Mehldau, Christian McBride & Brian Blade - Your Part To Play.wav

Peak level 99.2 %
Extraction speed 9.2 X
Track quality 100.0 %
Test CRC 8719BBE9
Copy CRC 8719BBE9
Accurately ripped (confidence 5) [48EF841A] (AR v2)
Copy OK


All tracks accurately ripped

No errors occurred

End of status report

–– CUETools DB Plugin V2.1.6

[CTDB TOCID: 8vv8vAHRoacwodqkxgc0qpAWVTc-] found
Submit result: 8vv8vAHRoacwodqkxgc0qpAWVTc- has been confirmed
Track | CTDB Status
1 | (69/69) Accurately ripped
2 | (69/69) Accurately ripped
3 | (69/69) Accurately ripped
4 | (69/69) Accurately ripped
5 | (69/69) Accurately ripped
6 | (69/69) Accurately ripped
7 | (68/69) Accurately ripped


==== Log checksum E5526C6FFF4A188BFB26605FEBA9627CEE650CE7D8B4A1B8487A53CA7BA07D1D ====

––––––––––––––––––––––––––––––

Exact Audio Copy V1.3 from 2. September 2016

EAC extraction logfile from 24. September 2020, 14:53

Joshua Redman, Brad Mehldau, Christian McBride & Brian Blade / RoundAgain

Used drive : PLEXTOR PX-891SAF Adapter: 1 ID: 0

Read mode : Secure
Utilize accurate stream : Yes
Defeat audio cache : Yes
Make use of C2 pointers : No

Read offset correction : 6
Overread into Lead-In and Lead-Out : No
Fill up missing offset samples with silence : Yes
Delete leading and trailing silent blocks : No
Null samples used in CRC calculations : Yes
Used interface : Native Win32 interface for Win NT & 2000
Gap handling : Appended to previous track

Used output format : User Defined Encoder
Selected bitrate : 1024 kBit/s
Quality : High
Add ID3 tag : No
Command line compressor : C:\Program Files (x86)\Exact Audio Copy\Flac\flac.exe
Additional command line options : -8 -V -T "ARTIST=%artist%" -T "TITLE=%title%" -T "ALBUM=%albumtitle%" -T "DATE=%year%" -T "TRACKNUMBER=%tracknr%" -T "GENRE=%genre%" -T "PERFORMER=%albuminterpret%" -T "COMPOSER=%composer%" %haslyrics%–tag-from-file=LYRICS="%lyricsfile%"%haslyrics% -T "ALBUMARTIST=%albumartist%" -T "DISCNUMBER=%cdnumber%" -T "TOTALDISCS=%totalcds%" -T "TOTALTRACKS=%numtracks%" -T "COMMENT=%comment%" %source% -o %dest%


TOC of the extracted CD

Track | Start | Length | Start sector | End sector
––––––––––––––––––––––––––––-
1 | 0:00.00 | 7:22.66 | 0 | 33215
2 | 7:22.66 | 7:11.41 | 33216 | 65581
3 | 14:34.32 | 7:01.72 | 65582 | 97228
4 | 21:36.29 | 6:00.51 | 97229 | 124279
5 | 27:37.05 | 5:22.51 | 124280 | 148480
6 | 32:59.56 | 6:37.31 | 148481 | 178286
7 | 39:37.12 | 5:04.65 | 178287 | 201151


Track 1

Filename D:\#EAC new\#wav+flac\#add\Joshua Redman, Brad Mehldau, Christian McBride & Brian Blade - RoundAgain\01. Joshua Redman, Brad Mehldau, Christian McBride & Brian Blade - Undertow.wav

Pre-gap length 0:00:02.00

Peak level 99.5 %
Extraction speed 5.1 X
Track quality 99.9 %
Test CRC 21788794
Copy CRC 21788794
Accurately ripped (confidence 5) [AB3E40B3] (AR v2)
Copy OK

Track 2

Filename D:\#EAC new\#wav+flac\#add\Joshua Redman, Brad Mehldau, Christian McBride & Brian Blade - RoundAgain\02. Joshua Redman, Brad Mehldau, Christian McBride & Brian Blade - Moe Honk.wav

Peak level 100.0 %
Extraction speed 6.6 X
Track quality 100.0 %
Test CRC F4283C1F
Copy CRC F4283C1F
Accurately ripped (confidence 5) [3E6E3494] (AR v2)
Copy OK

Track 3

Filename D:\#EAC new\#wav+flac\#add\Joshua Redman, Brad Mehldau, Christian McBride & Brian Blade - RoundAgain\03. Joshua Redman, Brad Mehldau, Christian McBride & Brian Blade - Silly Little Love Song.wav

Peak level 99.8 %
Extraction speed 6.6 X
Track quality 99.9 %
Test CRC 09D92638
Copy CRC 09D92638
Accurately ripped (confidence 5) [799EF516] (AR v2)
Copy OK

Track 4

Filename D:\#EAC new\#wav+flac\#add\Joshua Redman, Brad Mehldau, Christian McBride & Brian Blade - RoundAgain\04. Joshua Redman, Brad Mehldau, Christian McBride & Brian Blade - Right Back Round Again.wav

Peak level 100.0 %
Extraction speed 7.9 X
Track quality 100.0 %
Test CRC 959D13A1
Copy CRC 959D13A1
Accurately ripped (confidence 5) [D552DAFF] (AR v2)
Copy OK

Track 5

Filename D:\#EAC new\#wav+flac\#add\Joshua Redman, Brad Mehldau, Christian McBride & Brian Blade - RoundAgain\05. Joshua Redman, Brad Mehldau, Christian McBride & Brian Blade - Floppy Diss.wav

Peak level 100.0 %
Extraction speed 7.2 X
Track quality 99.9 %
Test CRC 8E831BFC
Copy CRC 8E831BFC
Accurately ripped (confidence 5) [15B39ADE] (AR v2)
Copy OK

Track 6

Filename D:\#EAC new\#wav+flac\#add\Joshua Redman, Brad Mehldau, Christian McBride & Brian Blade - RoundAgain\06. Joshua Redman, Brad Mehldau, Christian McBride & Brian Blade - Father.wav

Peak level 99.6 %
Extraction speed 7.9 X
Track quality 99.9 %
Test CRC E159C003
Copy CRC E159C003
Accurately ripped (confidence 5) [0C7B5798] (AR v2)
Copy OK

Track 7

Filename D:\#EAC new\#wav+flac\#add\Joshua Redman, Brad Mehldau, Christian McBride & Brian Blade - RoundAgain\07. Joshua Redman, Brad Mehldau, Christian McBride & Brian Blade - Your Part To Play.wav

Peak level 99.2 %
Extraction speed 9.2 X
Track quality 100.0 %
Test CRC 8719BBE9
Copy CRC 8719BBE9
Accurately ripped (confidence 5) [48EF841A] (AR v2)
Copy OK


All tracks accurately ripped

No errors occurred

End of status report

–– CUETools DB Plugin V2.1.6

[CTDB TOCID: 8vv8vAHRoacwodqkxgc0qpAWVTc-] found
Submit result: 8vv8vAHRoacwodqkxgc0qpAWVTc- has been confirmed
Track | CTDB Status
1 | (69/69) Accurately ripped
2 | (69/69) Accurately ripped
3 | (69/69) Accurately ripped
4 | (69/69) Accurately ripped
5 | (69/69) Accurately ripped
6 | (69/69) Accurately ripped
7 | (68/69) Accurately ripped


==== Log checksum E5526C6FFF4A188BFB26605FEBA9627CEE650CE7D8B4A1B8487A53CA7BA07D1D ====

Thanks to the Original ripper !