Subcategories

Reuben Wilson - Down With It (1998) {Cannonball Records CBD27106}

Posted By: ruskaval
Reuben Wilson - Down With It (1998) {Cannonball Records CBD27106}

Reuben Wilson - Down With It (1998) {Cannonball Records CBD27106}
EAC rip (secure mode) | FLAC (tracks)+CUE+LOG -> 327 Mb | MP3 @320 -> 122 Mb
Full Artwork @ 300 dpi (jpg) -> 14 Mb | 5% repair rar
© 1998 Cannonball Records | CBD27106
Jazz / Soul Jazz / Jazz Funk / Organ Hammond B-3

Reuben Wilson's 30-year musical influence on the modern music scene is readily apparent on Down With It, released in 1998 on the ultra-funky Cannonball label. Wilson's legendary status is well-deserved. Revered around the world as one of the pioneers of the Hammond B3 organ sound, the "godfather of funk and soul-jazz" continues to transplant his groove into the acid jazz movement. Unlike the previously released Organ Donor, Wilson does not revisit his classics "Hot Rod" and "Got to Get Your Own," but has written four new tunes on the set, including "One 2 Four," which reunites him with soul-jazz guitar pioneer Melvin Sparks.

Pop and funk are taken to new heights on the title track, "Down With It," while Wilson's slow blues signature is stamped on "Speakin' With the Deacon." Wilson's mastery of the Hammond B3 is in the pocket, as the maestro continues to enjoy its renaissance and down-home funk.

Musicians
Organ Reuben Wilson
Guitar Melvin Sparks
Guitar Ed Cherry
Drums Steve Berrios
Saxophone Melvin Butler
Drums Reggie Nicholson

tracks:
01 Rod's Tune 07:01
02 Movin' On 05:54
03 Down With It 05:50
04 At Last 07:12
05 Groove Ahead 05:17
06 Speakin' With The Deacon 06:46
07 One 2 Four 07:33
08 Sexual Healing 06:20

Exact Audio Copy V1.1 from 23. June 2015

EAC extraction logfile from 20. August 2016, 15:35

Reuben Wilson / Down With It

Used drive : MATSHITADVD+-RW SW830 Adapter: 1 ID: 0

Read mode : Secure
Utilize accurate stream : Yes
Defeat audio cache : Yes
Make use of C2 pointers : No

Read offset correction : 6
Overread into Lead-In and Lead-Out : No
Fill up missing offset samples with silence : Yes
Delete leading and trailing silent blocks : No
Null samples used in CRC calculations : Yes
Used interface : Native Win32 interface for Win NT & 2000
Gap handling : Appended to previous track

Used output format : User Defined Encoder
Selected bitrate : 896 kBit/s
Quality : High
Add ID3 tag : No
Command line compressor : C:\Program Files (x86)\Exact Audio Copy\Flac\flac.exe
Additional command line options : -8 -V -T "ARTIST=%artist%" -T "TITLE=%title%" -T "ALBUM=%albumtitle%" -T "DATE=%year%" -T "TRACKNUMBER=%tracknr%" -T "TOTALTRACKS=%numtracks%" -T "GENRE=%genre%" -T "ALBUMARTIST=%albumartist%" -T "ALBUM ARTIST=%albumartist%" -T "COMMENT=EAC Secure Mode, Test & Copy, AccurateRip, FLAC -8" %source%


TOC of the extracted CD

Track | Start | Length | Start sector | End sector
––––––––––––––––––––––––––––-
1 | 0:00.00 | 7:00.69 | 0 | 31568
2 | 7:00.69 | 5:54.08 | 31569 | 58126
3 | 12:55.02 | 5:49.68 | 58127 | 84369
4 | 18:44.70 | 7:12.25 | 84370 | 116794
5 | 25:57.20 | 5:16.40 | 116795 | 140534
6 | 31:13.60 | 6:46.37 | 140535 | 171021
7 | 38:00.22 | 7:33.30 | 171022 | 205026
8 | 45:33.52 | 6:19.63 | 205027 | 233514


Track 1

Filename G:\New Rips\Reuben Wilson - Down With It (1995) [FLAC]\01 - Rod's Tune.wav

Pre-gap length 0:00:02.00

Peak level 99.9 %
Extraction speed 1.9 X
Track quality 100.0 %
Test CRC 0456C9A2
Copy CRC 0456C9A2
Accurately ripped (confidence 3) [59BAD73C] (AR v2)
Copy OK

Track 2

Filename G:\New Rips\Reuben Wilson - Down With It (1995) [FLAC]\02 - Movin On.wav

Pre-gap length 0:00:02.14

Peak level 99.9 %
Extraction speed 2.2 X
Track quality 100.0 %
Test CRC 42A02366
Copy CRC 42A02366
Accurately ripped (confidence 3) [A73C7B90] (AR v2)
Copy OK

Track 3

Filename G:\New Rips\Reuben Wilson - Down With It (1995) [FLAC]\03 - Down With It.wav

Pre-gap length 0:00:01.62

Peak level 99.8 %
Extraction speed 2.0 X
Track quality 99.9 %
Test CRC CEC227E8
Copy CRC CEC227E8
Accurately ripped (confidence 3) [7BE6E5CB] (AR v2)
Copy OK

Track 4

Filename G:\New Rips\Reuben Wilson - Down With It (1995) [FLAC]\04 - At Last.wav

Pre-gap length 0:00:02.43

Peak level 99.8 %
Extraction speed 2.8 X
Track quality 100.0 %
Test CRC EFB1590E
Copy CRC EFB1590E
Accurately ripped (confidence 3) [4A27135B] (AR v2)
Copy OK

Track 5

Filename G:\New Rips\Reuben Wilson - Down With It (1995) [FLAC]\05 - Groove Ahead.wav

Pre-gap length 0:00:01.73

Peak level 99.9 %
Extraction speed 2.9 X
Track quality 100.0 %
Test CRC 61B67F15
Copy CRC 61B67F15
Accurately ripped (confidence 3) [69771DF1] (AR v2)
Copy OK

Track 6

Filename G:\New Rips\Reuben Wilson - Down With It (1995) [FLAC]\06 - Speakin With the Deacon.wav

Pre-gap length 0:00:01.60

Peak level 99.9 %
Extraction speed 3.2 X
Track quality 100.0 %
Test CRC 520368E0
Copy CRC 520368E0
Accurately ripped (confidence 3) [F23829CD] (AR v2)
Copy OK

Track 7

Filename G:\New Rips\Reuben Wilson - Down With It (1995) [FLAC]\07 - One 2 Four.wav

Pre-gap length 0:00:02.45

Peak level 99.9 %
Extraction speed 3.4 X
Track quality 100.0 %
Test CRC 56F67993
Copy CRC 56F67993
Accurately ripped (confidence 3) [F1EA728D] (AR v2)
Copy OK

Track 8

Filename G:\New Rips\Reuben Wilson - Down With It (1995) [FLAC]\08 - Sexual Healing.wav

Peak level 99.9 %
Extraction speed 3.5 X
Track quality 100.0 %
Test CRC 93168192
Copy CRC 93168192
Accurately ripped (confidence 3) [A0694C20] (AR v2)
Copy OK


All tracks accurately ripped

No errors occurred

End of status report

–– CUETools DB Plugin V2.1.6

[CTDB TOCID: v4i1H9_Jaw2Ru6NPzCSLxT40MBU-] found
Submit result: v4i1H9_Jaw2Ru6NPzCSLxT40MBU- has been confirmed
Track | CTDB Status
1 | (1/1) Accurately ripped
2 | (1/1) Accurately ripped
3 | (1/1) Accurately ripped
4 | (1/1) Accurately ripped
5 | (1/1) Accurately ripped
6 | (1/1) Accurately ripped
7 | (1/1) Accurately ripped
8 | (1/1) Accurately ripped


==== Log checksum 10D53728CBA35038EF96B017E611DF6DAC647287031C5AB489E165A4F11E8F8D ====


Reuben Wilson - Down With It (1998) {Cannonball Records CBD27106}

Reuben Wilson - Down With It (1998) {Cannonball Records CBD27106}



===