Subcategories

Richard Stoltzman and NEXUS - Garden of Sounds (2000)

Posted By: d'Avignon
Richard Stoltzman and NEXUS - Garden of Sounds (2000)

Richard Stoltzman and NEXUS - Garden of Sounds (2000)
Classical/contemporary | FLAC lossless | cuesheets+log | covers+booklet | 1h11m38s | 264mb
Label: BIS | cat. no. 1108


Formed in 1971 by Bob Becker, Bill Cahn, Robin Engelman, Russell Hartenberger and John Wyre, NEXUS has come to be recognized as one of the foremost percussion ensembles in the world. Since 1975 the group has travelled extensively to present its recitals, including tours to Europe, Australia, New Zealand and Asia, as well as regular appearances in Canada and the United States. The group's unique repertoire for symphony orchestra and percussion — encompassing serious compositions, pops concerts, and educational programmes — has led to guest appearances with orchestras all over the world.

Richard Stoltzman's virtuosity, musicianship and sheer personal magnetism have catapulted him to the highest ranks of international acclaim, making him one of today's most sought-after con-cert artists. As soloist with more than a hundred orchestras, as a captivating recitalist and cham-ber music performer, as an innovative jazz artist, and as a two-time Grammy Award winner, Stoltzman has defied categorization, dazzling critics and audiences alike in his performances of all genres of music. Among many compelling recent collaborations are performances and work-shops with the renowned percussion ensemble NEXUS, the acclaimed 'America Connection' programme with pianist/composer Lukas Foss, and Family Concerts with the entire Stoltzman Family.

Tracks:

01. Le Dialogue du bois [0:07:11.36]
02. Eternal Triangle Beckons [0:06:34.00]
03. Wonderings [0:07:30.30]
04. Rhapsody in Green [0:06:13.00]
05. Rites [0:05:07.80]
06. Waterfall Having No Water [0:06:50.73]
07. Bamboo Grove [0:02:38.66]
08. Midnight In the Lupines [0:03:06.40]
09. Amazin' Gazin' [0:05:41.80]
10. Garden of Sounds [0:04:59.00]
11. Tibet to Be [0:04:10.13]
12. Reflections [0:06:17.96]
13. Ebony Rêverie [0:05:22.86]

Performers:

Richard Stolzman – clarinet

NEXUS - Marimba, vibraphone, Deagan Songbells, Emax keyboard, steel pans, amadinda (Ugandan xylophone), bass drums, conga and bongo drums, Ghanaian drums, concert tom toms, ocarinas, waterphones, quicas (Brazilian friction drums), bass harmonica, panpipes, chang (Chinese zither), toy accordion, various types of cymbals, and dozens of rattles, shakers, scrapers, wooden and metallic percussion instruments selected by the performers from the extensive NEXUS collection of instruments from all over the world.

Exact Audio Copy V1.0 beta 3 from 29. August 2011

EAC extraction logfile from 5. January 2013, 23:56

Richard Stoltzman and NEXUS / Garden of Sounds

Used drive : TSSTcorpCDDVDW SH-216AB Adapter: 1 ID: 0

Read mode : Secure
Utilize accurate stream : Yes
Defeat audio cache : Yes
Make use of C2 pointers : No

Read offset correction : 6
Overread into Lead-In and Lead-Out : No
Fill up missing offset samples with silence : Yes
Delete leading and trailing silent blocks : No
Null samples used in CRC calculations : Yes
Used interface : Native Win32 interface for Win NT & 2000

Used output format : User Defined Encoder
Selected bitrate : 768 kBit/s
Quality : High
Add ID3 tag : No
Command line compressor : C:\Program Files (x86)\Exact Audio Copy\FLAC\FLAC.EXE
Additional command line options : -6 -V -T "ARTIST=%artist%" -T "TITLE=%title%" -T "ALBUM=%albumtitle%" -T "DATE=%year%" -T "TRACKNUMBER=%tracknr%" -T "GENRE=%genre%" -T "COMMENT=%comment%" -T "BAND=%albuminterpret%" -T "ALBUMARTIST=%albuminterpret%" -T "COMPOSER=%composer%" %haslyrics%–tag-from-file=LYRICS="%lyricsfile%"%haslyrics% -T "DISCNUMBER=%cdnumber%" -T "TOTALDISCS=%totalcds%" -T "TOTALTRACKS=%numtracks%" %hascover%–picture="%coverfile%"%hascover% %source% -o %dest%


TOC of the extracted CD

Track | Start | Length | Start sector | End sector
––––––––––––––––––––––––––––-
1 | 0:00.00 | 7:11.27 | 0 | 32351
2 | 7:11.27 | 6:34.00 | 32352 | 61901
3 | 13:45.27 | 7:30.23 | 61902 | 95674
4 | 21:15.50 | 6:13.00 | 95675 | 123649
5 | 27:28.50 | 5:07.60 | 123650 | 146734
6 | 32:36.35 | 6:50.55 | 146735 | 177539
7 | 39:27.15 | 2:38.50 | 177540 | 189439
8 | 42:05.65 | 3:06.30 | 189440 | 203419
9 | 45:12.20 | 5:41.60 | 203420 | 229054
10 | 50:54.05 | 4:59.00 | 229055 | 251479
11 | 55:53.05 | 4:10.10 | 251480 | 270239
12 | 60:03.15 | 6:17.72 | 270240 | 298586
13 | 66:21.12 | 5:22.65 | 298587 | 322801


Range status and errors

Selected range

Filename C:\Users\astarte\03. POST\Stoltzman, Richard and Nexus - Garden of Sounds\Richard Stoltzman and NEXUS - Garden of Sounds.wav

Peak level 89.1 %
Extraction speed 8.5 X
Range quality 99.9 %
Copy CRC A3D2CBED
Copy OK

No errors occurred


AccurateRip summary

Track 1 not present in database
Track 2 not present in database
Track 3 not present in database
Track 4 not present in database
Track 5 not present in database
Track 6 not present in database
Track 7 not present in database
Track 8 not present in database
Track 9 not present in database
Track 10 not present in database
Track 11 not present in database
Track 12 not present in database
Track 13 not present in database

None of the tracks are present in the AccurateRip database

End of status report

==== Log checksum 852CDD77A16C4695F734A3174FCD3297FCA97D86BF57F3679FF1CD51F892BA62 ====