Subcategories

Robert Schumann - Rudolf Innig - Complete Organ Works (1995)

Posted By: luckburz
Robert Schumann - Rudolf Innig - Complete Organ Works (1995)

Robert Schumann - Rudolf Innig - Complete Organ Works
EAC+LOG+CUE | FLAC: 259 MB | Full Artwork | 5% Recovery Info
Label/Cat#: MDG "Gold" # 317 0619-2 | Country/Year: Germany 1995
Genre: Classical | Style: Romantic, Organ

MD5 [X] CUE [X] LOG [X] INFO TEXT [X] ARTWORK [X]

selfrip [X] not my rip []

Robert Schumann - Rudolf Innig - Complete Organ Works (1995)


Exact Audio Copy V1.0 beta 3 from 29. August 2011

EAC extraction logfile from 19. September 2012, 18:56

Rudolf Innig / Schumann: Complete Organ Works

Used drive : PIONEER BD-RW BDR-206 Adapter: 0 ID: 2

Read mode : Secure
Utilize accurate stream : Yes
Defeat audio cache : Yes
Make use of C2 pointers : No

Read offset correction : 667
Overread into Lead-In and Lead-Out : No
Fill up missing offset samples with silence : Yes
Delete leading and trailing silent blocks : No
Null samples used in CRC calculations : Yes
Used interface : Native Win32 interface for Win NT & 2000

Used output format : User Defined Encoder
Selected bitrate : 1024 kBit/s
Quality : High
Add ID3 tag : Yes
Command line compressor : C:\Program Files\FLAC\flac.exe
Additional command line options : -5 -T "Artist=%artist%" -T "Title=%title%" -T "Album=%albumtitle%" -T "Date=%year%" -T "Tracknumber=%tracknr%" -T "Genre=%genre%" %source% -o %dest%


TOC of the extracted CD

Track | Start | Length | Start sector | End sector
––––––––––––––––––––––––––––-
1 | 0:00.32 | 2:48.00 | 32 | 12631
2 | 2:48.32 | 6:51.00 | 12632 | 43456
3 | 9:39.32 | 2:53.13 | 43457 | 56444
4 | 12:32.45 | 4:48.57 | 56445 | 78101
5 | 17:21.27 | 2:36.05 | 78102 | 89806
6 | 19:57.32 | 5:09.50 | 89807 | 113031
7 | 25:07.07 | 3:14.50 | 113032 | 127631
8 | 28:21.57 | 3:54.50 | 127632 | 145231
9 | 32:16.32 | 5:17.63 | 145232 | 169069
10 | 37:34.20 | 3:28.62 | 169070 | 184731
11 | 41:03.07 | 6:27.50 | 184732 | 213806
12 | 47:30.57 | 5:19.25 | 213807 | 237756
13 | 52:50.07 | 4:20.25 | 237757 | 257281
14 | 57:10.32 | 4:34.63 | 257282 | 277894
15 | 61:45.20 | 2:32.00 | 277895 | 289294
16 | 64:17.20 | 7:38.20 | 289295 | 323664


Range status and errors

Selected range

Filename F:\=== VINYL RIPS ===\=== EAC===\X FRESH RIP\Schumann- Rudolf Innig - Complete Organ Works.wav

Peak level 100.0 %
Extraction speed 0.9 X
Range quality 100.0 %
Test CRC E20ED7CF
Copy CRC E20ED7CF
Copy OK

No errors occurred


AccurateRip summary

Track 1 accurately ripped (confidence 1) [15FEE8E3] (AR v1)
Track 2 accurately ripped (confidence 1) [777B700D] (AR v1)
Track 3 accurately ripped (confidence 1) [397FAE94] (AR v1)
Track 4 accurately ripped (confidence 1) [092EDA8F] (AR v1)
Track 5 accurately ripped (confidence 1) [FD5BE681] (AR v1)
Track 6 accurately ripped (confidence 1) [88F18FF9] (AR v1)
Track 7 accurately ripped (confidence 1) [A363B1F6] (AR v1)
Track 8 accurately ripped (confidence 1) [079690BB] (AR v1)
Track 9 accurately ripped (confidence 1) [829BF070] (AR v1)
Track 10 accurately ripped (confidence 1) [97F2CD12] (AR v1)
Track 11 accurately ripped (confidence 1) [ADF8F079] (AR v1)
Track 12 accurately ripped (confidence 1) [C914DC99] (AR v1)
Track 13 accurately ripped (confidence 1) [3ECAC443] (AR v1)
Track 14 accurately ripped (confidence 1) [87EFC498] (AR v1)
Track 15 accurately ripped (confidence 1) [C1BAAAEF] (AR v1)
Track 16 accurately ripped (confidence 1) [71C7E0E2] (AR v1)

All tracks accurately ripped

End of status report

–– CUETools DB Plugin V2.1.3

[CTDB TOCID: E2xXrqohGtIAO4_vSvgblDj0c1s-] disk not present in database, Submit result: discs with pregaps not supported in this protocol version


==== Log checksum B738E3816DF64E038809D385707E9B83CB9D3C8CE478BEF1216F27F5581C664C ====

foobar2000 1.1.14a / Dynamic Range Meter 1.1.1
log date: 2012-09-20 12:39:18

––––––––––––––––––––––––––––––––––––––––
Analyzed: Rudolf Innig / Schumann: Complete Organ Works
––––––––––––––––––––––––––––––––––––––––

DR Peak RMS Duration Track
––––––––––––––––––––––––––––––––––––––––
DR9 -13.70 dB -24.63 dB 2:48 01-Schumann - Studien fuer den Pedalfluegel op.56 - Nicht zu schnell
DR10 -10.21 dB -24.68 dB 6:51 02-Schumann - Studien fuer den Pedalfluegel op.56 - Mit innigem Ausdruck
DR9 -10.85 dB -23.09 dB 2:53 03-Schumann - Studien fuer den Pedalfluegel op.56 - Andantino
DR11 -7.64 dB -22.30 dB 4:49 04-Schumann - Studien fuer den Pedalfluegel op.56 - Innig
DR10 -9.10 dB -26.18 dB 2:36 05-Schumann - Studien fuer den Pedalfluegel op.56 - Nicht zu schnell
DR9 -7.30 dB -20.95 dB 5:10 06-Schumann - Studien fuer den Pedalfluegel op.56 - Adagio
DR12 -6.72 dB -23.35 dB 3:15 07-Schumann - Skizzen fuer den Pedalfluegel op.58 - Nicht schnell und sehr markiert
DR11 -3.12 dB -18.33 dB 3:55 08-Schumann - Skizzen fuer den Pedalfluegel op.58 - Nicht schnell und sehr markiert
DR12 -0.97 dB -17.00 dB 5:18 09-Schumann - Skizzen fuer den Pedalfluegel op.58 - Lebhaft
DR10 -8.68 dB -23.20 dB 3:29 10-Schumann - Skizzen fuer den Pedalfluegel op.58 - Allegretto
DR11 -2.25 dB -17.09 dB 6:28 11-Schumann - Sechs Fugen ueber den Namen BACH op.60 - Langsam
DR11 -0.29 dB -16.22 dB 5:19 12-Schumann - Sechs Fugen ueber den Namen BACH op.60 - Lebhaft
DR9 -11.70 dB -24.85 dB 4:20 13-Schumann - Sechs Fugen ueber den Namen BACH op.60 - Mit sanften Stimmen
DR11 0.00 dB -16.14 dB 4:35 14-Schumann - Sechs Fugen ueber den Namen BACH op.60 - Maessig, doch nicht zu la…
DR10 -9.66 dB -25.59 dB 2:32 15-Schumann - Sechs Fugen ueber den Namen BACH op.60 - Lebhaft
DR11 -0.54 dB -16.32 dB 7:38 16-Schumann - Sechs Fugen ueber den Namen BACH op.60 - Maessig, nach und nach sc…
––––––––––––––––––––––––––––––––––––––––

Number of tracks: 16
Official DR value: DR10

Samplerate: 44100 Hz
Channels: 2
Bits per sample: 16
Bitrate: 504 kbps
Codec: FLAC
================================================================================



CD Info:

Robert Schumann - Rudolf Innig - Complete Organ Works

Label: MDG
Series: Gold
Catalog#: 317 0619-2
Format: CD, Album
Country: Germany
Released: 1995
Genre: Classical

Tracklist:

01. Schumann - Studien fuer den Pedalfluegel op.56 - Nicht zu schnell 2:48
02. Schumann - Studien fuer den Pedalfluegel op.56 - Mit innigem Ausdruck 6:51
03. Schumann - Studien fuer den Pedalfluegel op.56 - Andantino 2:53
04. Schumann - Studien fuer den Pedalfluegel op.56 - Innig 4:48
05. Schumann - Studien fuer den Pedalfluegel op.56 - Nicht zu schnell 2:36
06. Schumann - Studien fuer den Pedalfluegel op.56 - Adagio 5:09
07. Schumann - Skizzen fuer den Pedalfluegel op.58 - Nicht schnell und sehr markiert 3:14
08. Schumann - Skizzen fuer den Pedalfluegel op.58 - Nicht schnell und sehr markiert 3:54
09. Schumann - Skizzen fuer den Pedalfluegel op.58 - Lebhaft 5:17
10. Schumann - Skizzen fuer den Pedalfluegel op.58 - Allegretto 3:28
11. Schumann - Sechs Fugen ueber den Namen BACH op.60 - Langsam 6:27
12. Schumann - Sechs Fugen ueber den Namen BACH op.60 - Lebhaft 5:19
13. Schumann - Sechs Fugen ueber den Namen BACH op.60 - Mit sanften Stimmen 4:20
14. Schumann - Sechs Fugen ueber den Namen BACH op.60 - Maessig, doch nicht zu langsam 4:34
15. Schumann - Sechs Fugen ueber den Namen BACH op.60 - Lebhaft 2:32
16. Schumann - Sechs Fugen ueber den Namen BACH op.60 - Maessig, nach und nach schneller 7:38

Rudolf Innig, organ
(Klaus Organ in St. Stephanus, Beckum)
recorded March, 1995

Robert Schumann - Rudolf Innig - Complete Organ Works (1995)


Excerpts from the booklet
When Schumann offered the six BACH fugues to his publisher Whistling, he wrote: „This is a piece of work, that I prepared during the whole of the previous year, so that it might be worthy of the high name that it bears, a piece of work which I believe will perhaps survive longer than any of my others”. … The BACH fugues doubtless represent the height of Schumann’s “fugue passion”. They occupy a pride of place – and not only because they were the first in the long series of BACH compositions that has continued right up until the present day. Schumann’s fugues need not to shy away from comparison with the most famous examples of this series, the BACH pieces by Franz Liszt and Max Reger. (Prof. Dr. Walter Werbeck)

Excerpts from the reviews
„Ein Kompendium, das auch interpretatorische Maßstäbe setzt.“ (Neue Musikzeitung,, 1996)
„Meilenstein“ (Fonoforum, 1996)
„Rudolf Innig’s profound artistic and scholarly knowledge makes him the perfect interpreter for Schumann’s elaborately and expertly designed organ works. The versatile organist has been honoured with numerous international prizes…” (Fanfare, 1996)
“Excellent image, de bon volume”. (Diapason, 1996)


Various Composers - Sächsische Orgelmusik / Saxon Organ Music
Julius Reubke - Martin Sander, Claudius Tanski - Sonata on the 94th Psalm in C minor & Piano Sonata in B minor
John Cage - Steffen Schleiermacher - Complete Piano Music Vol. 1 - The Prepared Piano
Brandt & Böhme - Wolfgang Bauer - Music For Trumpet [CD Rip]
Brandt & Böhme - Wolfgang Bauer - Music For Trumpet [SACD Rip]
Dietrich Buxtehude - Harald Vogel - Complete Organ Works
Johann Melchior Molter - Orchestral & Chamber Music
Georg Philipp Telemann - Musica Alta Ripa - Concertos and Chamber Music
Schumann - Trio Parnassus / Hariolf Schlichtig - Piano Quartet [CD Rip]
Schumann - Trio Parnassus / Hariolf Schlichtig - Piano Quartet [SACD Rip]
Christoph Graupner - Orchestral Works Vol. 3
Christoph Graupner - Orchestral Works Vol. 2
Christoph Graupner - Orchestral Works Vol. 1
Johann Sebastian Bach - Musica Alta Ripa - Solo Concertos Vol. 1
Albert Lortzing - Neue Detmolder Liedertafel - An den Frühling: Ernste und heitere Festgesänge für Männerstimmen
Musicalische Compagney - Lamenti & Concerti: Liebe und Klage in der Musik von Heinrich Schutz (1585-1672)
Franz Liszt - Tanski / Beethoven Orchester Bonn - Tasso, Totentanz, Piano Music [CD Rip]
Franz Liszt - Tanski / Beethoven Orchester Bonn - Tasso, Totentanz, Piano Music [SACD Rip]
Ottorino Respighi - Pini di Roma / Trittico / Tre Corali [CD Rip]
Ottorino Respighi - Pini di Roma / Trittico / Tre Corali [SACD Rip]
Berliner Vokalensemble ''Carl Maria von Weber'' - Bella Ciao
Berliner Vokalensemble ''Carl Maria von Weber'' - Kein schöner Land
George Frideric Handel - Belshazzar [HWV 61] (3xCD)
George Frideric Handel - Saul [HWV 53] (3xCD)
Johannes Brahms - Hardy Rittner - Early Piano Works Vol.1 [CD Rip]
Johannes Brahms - Hardy Rittner - Early Piano Works Vol.2 [CD Rip]
Johannes Brahms - Hardy Rittner - Early Piano Works Vol.2 [SACD Rip]
Johannes Brahms / Robert Schumann - Mozart Piano Quartet - Piano Quartets
Wolfgang Amadeus Mozart / Leipziger Streichquartett - The Ten Celebrated String Quartets
Norbert Schultze - Drops …unter der Laterne

Robert Schumann - Rudolf Innig - Complete Organ Works (1995)

// classical music \\
// all of my uploads \\
________________

Download:

Filepost FLAC
Filepost Artwork
________________