Subcategories

RobinElla - Solace For The Lonely [Dualtone 80302-01215-2] {2005}

Posted By: luckburz
RobinElla - Solace For The Lonely [Dualtone 80302-01215-2] {2005}

RobinElla - Solace For The Lonely
EAC+LOG+CUE | FLAC: 297 MB | Full Artwork | 5% Recovery Info
Label/Cat#: Dualtone # 80302-01215-2 | Country/Year: US 2005
Genre: Rock, Country | Style: Alt. Country, Roots Rock

MD5 [X] CUE [X] LOG [X] INFO TEXT [X] ARTWORK [X]

selfrip [X] not my rip []

RobinElla - Solace For The Lonely [Dualtone 80302-01215-2] {2005}


Exact Audio Copy V1.0 beta 3 from 29. August 2011

EAC extraction logfile from 6. August 2012, 16:25

RobinElla / Solace For The Lonely

Used drive : PIONEER BD-RW BDR-206 Adapter: 2 ID: 3

Read mode : Secure
Utilize accurate stream : Yes
Defeat audio cache : Yes
Make use of C2 pointers : No

Read offset correction : 667
Overread into Lead-In and Lead-Out : No
Fill up missing offset samples with silence : Yes
Delete leading and trailing silent blocks : No
Null samples used in CRC calculations : Yes
Used interface : Native Win32 interface for Win NT & 2000

Used output format : User Defined Encoder
Selected bitrate : 896 kBit/s
Quality : High
Add ID3 tag : No
Command line compressor : C:\Program Files\FLAC\flac.exe
Additional command line options : -5 -T "Artist=%artist%" -T "Title=%title%" -T "Album=%albumtitle%" -T "Date=%year%" -T "Tracknumber=%tracknr%" -T "Genre=%genre%" %source% -o %dest%


TOC of the extracted CD

Track | Start | Length | Start sector | End sector
––––––––––––––––––––––––––––-
1 | 0:00.00 | 3:30.24 | 0 | 15773
2 | 3:30.24 | 3:36.61 | 15774 | 32034
3 | 7:07.10 | 5:42.73 | 32035 | 57757
4 | 12:50.08 | 3:09.42 | 57758 | 71974
5 | 15:59.50 | 4:55.16 | 71975 | 94115
6 | 20:54.66 | 3:48.50 | 94116 | 111265
7 | 24:43.41 | 3:41.05 | 111266 | 127845
8 | 28:24.46 | 3:37.16 | 127846 | 144136
9 | 32:01.62 | 4:11.55 | 144137 | 163016
10 | 36:13.42 | 4:24.55 | 163017 | 182871
11 | 40:38.22 | 2:48.00 | 182872 | 195471
12 | 43:26.22 | 2:22.71 | 195472 | 206192
13 | 45:49.18 | 3:42.39 | 206193 | 222881


Range status and errors

Selected range

Filename I:\=== VINYL RIPS ===\=== EAC===\X FRESH RIP\RobinElla - Solace For The Lonely.wav

Peak level 99.1 %
Extraction speed 1.1 X
Range quality 99.9 %
Test CRC 7547693E
Copy CRC 7547693E
Copy OK

No errors occurred


AccurateRip summary

Track 1 accurately ripped (confidence 2) [8CFB07EE] (AR v2)
Track 2 accurately ripped (confidence 2) [420EDE14] (AR v2)
Track 3 accurately ripped (confidence 2) [AF16DBE1] (AR v2)
Track 4 accurately ripped (confidence 2) [D4606A88] (AR v2)
Track 5 accurately ripped (confidence 2) [14C04DB5] (AR v2)
Track 6 accurately ripped (confidence 2) [F7FC903B] (AR v2)
Track 7 accurately ripped (confidence 2) [0ED8048B] (AR v2)
Track 8 accurately ripped (confidence 2) [27FD5B76] (AR v2)
Track 9 accurately ripped (confidence 2) [1902E7AD] (AR v2)
Track 10 accurately ripped (confidence 2) [394830A4] (AR v2)
Track 11 accurately ripped (confidence 2) [7DE20B0E] (AR v2)
Track 12 accurately ripped (confidence 2) [E19EA3E5] (AR v2)
Track 13 accurately ripped (confidence 2) [296BCA64] (AR v2)

All tracks accurately ripped

End of status report

–– CUETools DB Plugin V2.1.3

[CTDB TOCID: fcJs_LgQ23cvtNmrh.6Ez3tnb2w-] found, Submit result: fcJs_LgQ23cvtNmrh.6Ez3tnb2w- has been confirmed
[e4f70284] (1/1) Accurately ripped


==== Log checksum FE82E7816133F0DA945615A0DCCD7CC72594B7E7D69D7769E8FEA4D4059FF687 ====

foobar2000 1.1.7 / Dynamic Range Meter 1.1.1
log date: 2012-08-17 13:01:12

––––––––––––––––––––––––––––––––––––––––
Analyzed: RobinElla / Solace For The Lonely
––––––––––––––––––––––––––––––––––––––––

DR Peak RMS Duration Track
––––––––––––––––––––––––––––––––––––––––
DR7 -0.08 dB -9.15 dB 3:30 01-Break it Down Baby
DR7 -0.10 dB -8.88 dB 3:37 02-Solace for the Lonely
DR7 -0.10 dB -8.64 dB 5:43 03-Press On
DR6 -0.10 dB -8.19 dB 3:10 04-Down the Mountain
DR7 -0.10 dB -9.58 dB 4:55 05-Whippin Wind
DR6 -0.10 dB -8.14 dB 3:49 06-Come Back My Way
DR8 -0.10 dB -9.58 dB 3:41 07-Little Boy
DR7 -0.10 dB -9.49 dB 3:37 08-Oh So Sexy
DR10 -0.10 dB -12.72 dB 4:12 09-Teardrops
DR7 -0.10 dB -8.41 dB 4:25 10-All I've Given
DR8 -0.10 dB -10.58 dB 2:48 11-Waiting
DR9 -0.10 dB -12.82 dB 2:23 12-Brand New Key
DR9 -0.10 dB -10.80 dB 3:43 13-I Fall in Love as Much as I Can
––––––––––––––––––––––––––––––––––––––––

Number of tracks: 13
Official DR value: DR8

Samplerate: 44100 Hz
Channels: 2
Bits per sample: 16
Bitrate: 841 kbps
Codec: FLAC
================================================================================



CD Info:

Robinella - Solace For The Lonely

Label: Dualtone
Catalog#: 80302-01215-2
Format: CD, Album
Country: US
Released: 2005
Genre: Rock
Style: American, Alt. Country

Tracklist

1 - Break it Down Baby 3:30
2 - Solace for the Lonely 3:37
3 - Press On 5:43
4 - Down the Mountain 3:10
5 - Whippin Wind 4:55
6 - Come Back My Way 3:49
7 - Little Boy 3:41
8 - Oh So Sexy 3:37
9 - Teardrops 4:12
10 - All I've Given 4:25
11 - Waiting 2:48
12 - Brand New Key 2:23
13 - I Fall in Love as Much as I Can 3:43

RobinElla - Solace For The Lonely [Dualtone 80302-01215-2] {2005}


review by Thom Jurek

Robinella & the CC String Band rippled the pond in 2003 with her band's self-titled Columbia debut. It offered the sound of a band of crack musicians fronted by a singer whose voice was chameleon-like in its ability to evoke country, bluegrass, pop, and jazz frameworks with sultry seductiveness, murky as smoke and yet alternately clear as water and fresh as the morning. The album showed promise, and delivered. Columbia was hoping for something akin to Alison Krauss' success. It didn't happen. This time out, Robinella Contreras shows up on the adventurous Dualtone label. She still has the CC String Band (named after her husband, Cruz Contreras), but only her name appears on the label. For those who were charmed by the last recording's flirtation with pop as it rooted itself in traditional country and bluegrass structures, this will come as a bit of a shock. For those uninitiated, Solace for the Lonely is a breath of clean sweet air. This is a pop record. Period. It's mature, sophisticated, elegant, heartbreakingly lovely, and poetic. There are songs about sex, spirituality, and love both pure and impure, and Jesus himself is called upon with confidence and joy. Country and bluegrass elements are everywhere present, but more as references than sources. What Robinella and Cruz – who plays mandolin, Fender Rhodes, guitar, and piano – have come up with is the recording they've been striving to make since their first album went to tape. Thanks to producer Doug Lancio (who understands balance and how to make anything sound like it was recorded in the living room), fiddles, acoustic guitars, upright bass, drums, and percussion keep the set from wandering too far afield from the roots. No matter what's happening, the feel is that this music is made from the ground up, with its roots firmly placed in Southern soil. "Press On" could have been produced by Daniel Lanois. A meditation on death and redemption, its whispering keyboards, muted tom-toms, sparse piano, and electric guitars underscore the poignancy in Robinella's lyric. The very next cut, "Down the Mountain," a modern spiritual, is a country tune defined by Cruz's mandolin, fiddle, and slowly strolling electric guitars. "Come Back My Way" is another melodic country tune. Other musics make their way here as well, as in "Little Boy" with its funky drums, wah-wah guitar, and chunky Rhodes and synth. Robinella's understated yet confident voice – like some cross between Billie Holiday, Minnie Riperton, and Annette Peacock – rises to the occasion and delivers effortlessly. Jazz winds its way in on "Break It Down" and "I Fall in Love as Much as I Can." Again, it's the instrumentation (Cruz's mandolin playing in particular) and arrangement that make the tunes swing (think Django Reinhardt and Stéphane Grappelli with Holiday fronting the band). Robinella's voice is so versatile – so utterly loose, carefree, and expressive no matter what the material is – that she glides into every tune with an open delivery and digs into her words with an unhurried, roughhewn grace. She swings, emotes, and states with a quiet authority. Her cover of Melanie's "Brand New Key" transforms the tune from its original context as a romantic novelty into a seductive, sexy love song. Solace for the Lonely is a major step forward; it's full of adventure, fun, and mischief.
RobinElla - Solace For The Lonely [Dualtone 80302-01215-2] {2005}
RobinElla - Solace For The Lonely [Dualtone 80302-01215-2] {2005}
allmusicguide
RobinElla - Solace For The Lonely [Dualtone 80302-01215-2] {2005}

// classical music \\
// all of my uploads \\
________________

Download:

Filepost FLAC
Filepost Artwork
________________