Tags
Language
Tags

Roger Taylor - Outsider (Japanese SHM-CD) (2021)

Posted By: delpotro
Roger Taylor - Outsider (Japanese SHM-CD) (2021)

Roger Taylor - Outsider (Japanese SHM-CD) (2021)
EAC Rip | FLAC (tracks+log+.cue) - 351 Mb | MP3 CBR 320 kbps - 131 Mb | 00:57:18
Classic Rock, Soft Rock | Label: EMI Records

Outsider is the ltest solo album from rock legend Queen's Roger Taylor. With much of Outsider recorded during lockdown, this new album finds Taylor in reflective mood. Across the record he conveys a palpable sense of seclusion, concerns over the passing of time, and tellingly, dedicates it “to all the outsiders, those who feel left on the sidelines”. A highly personal project, Outsider’s instrumentation is almost entirely performed by Taylor, with his largely restrained vocals matching the album’s contemplative ambience. But Taylor does cut loose along the way with a foray into some hard-riffing blues-rock as well as an adrenalin charged big surprise retread of a classic 1965 novelty song, which is exactly the fun on earth we need in these challenging times.
Tracklist:
1. Tides (03:39)
2. I Know, I Know, I Know (03:51)
3. More Kicks (Long Day’s Journey Into Night… Life) (04:56)
4. Absolutely Anything (05:04)
5. Gangsters Are Running This World (04:04)
6. We're All Just Trying To Get By (feat. KT Tunstall) (02:52)
7. Gangsters Are Running This World (Purple Version) (02:37)
8. Isolation (03:24)
9. The Clapping Song (02:55)
10. Outsider (03:41)
11. Foreign Sand (English Mix) (03:01)
12. Journey's End (06:58)
13. Surrender (remix) (04:00)
14. London Town - C'mon Down (remix) (06:09)

Exact Audio Copy V1.3 from 2. September 2016

EAC extraction logfile from 13. December 2021, 23:39

Roger Taylor / Outsider (Japanese SHM-CD)

Used drive : MATSHITABD-CMB UJ141AF Adapter: 1 ID: 0

Read mode : Secure
Utilize accurate stream : Yes
Defeat audio cache : Yes
Make use of C2 pointers : No

Read offset correction : 103
Overread into Lead-In and Lead-Out : No
Fill up missing offset samples with silence : Yes
Delete leading and trailing silent blocks : No
Null samples used in CRC calculations : Yes
Used interface : Native Win32 interface for Win NT & 2000
Gap handling : Appended to previous track

Used output format : User Defined Encoder
Selected bitrate : 1024 kBit/s
Quality : High
Add ID3 tag : No
Command line compressor : C:\Program Files (x86)\FLAC Frontend\tools\flac.exe
Additional command line options : -8 -V -T "ARTIST=%artist%" -T "TITLE=%title%" -T "ALBUM=%albumtitle%" -T "DATE=%year%" -T "TRACKNUMBER=%tracknr%" -T "GENRE=%genre%" -T "PERFORMER=%albuminterpret%" -T "COMPOSER=%composer%" %haslyrics%–tag-from-file=LYRICS="%lyricsfile%"%haslyrics% -T "ALBUMARTIST=%albumartist%" -T "DISCNUMBER=%cdnumber%" -T "TOTALDISCS=%totalcds%" -T "TOTALTRACKS=%numtracks%" -T "COMMENT=%comment%" %source% -o %dest%


TOC of the extracted CD

Track | Start | Length | Start sector | End sector
––––––––––––––––––––––––––––-
1 | 0:00.00 | 3:40.62 | 0 | 16561
2 | 3:40.62 | 3:51.63 | 16562 | 33949
3 | 7:32.50 | 4:56.05 | 33950 | 56154
4 | 12:28.55 | 5:04.33 | 56155 | 78987
5 | 17:33.13 | 4:04.15 | 78988 | 97302
6 | 21:37.28 | 2:52.49 | 97303 | 110251
7 | 24:30.02 | 2:37.06 | 110252 | 122032
8 | 27:07.08 | 3:24.06 | 122033 | 137338
9 | 30:31.14 | 2:55.40 | 137339 | 150503
10 | 33:26.54 | 3:41.13 | 150504 | 167091
11 | 37:07.67 | 3:01.62 | 167092 | 180728
12 | 40:09.54 | 6:59.49 | 180729 | 212202
13 | 47:09.28 | 4:00.02 | 212203 | 230204
14 | 51:09.30 | 6:08.70 | 230205 | 257874


Track 1

Filename E:\FLAC\Burn To Blu-ray\Roger Taylor\[2021.10.01] Outsider (Japanese SHM-CD)\01 - Tides.wav

Pre-gap length 0:00:02.00

Peak level 88.5 %
Extraction speed 2.4 X
Track quality 100.0 %
Test CRC FC4A1DD4
Copy CRC FC4A1DD4
Accurately ripped (confidence 1) [CA794C48] (AR v2)
Copy OK

Track 2

Filename E:\FLAC\Burn To Blu-ray\Roger Taylor\[2021.10.01] Outsider (Japanese SHM-CD)\02 - I Know I Know I Know.wav

Peak level 89.0 %
Extraction speed 2.7 X
Track quality 100.0 %
Test CRC 8EB4CD19
Copy CRC 8EB4CD19
Accurately ripped (confidence 1) [2E9BFDCB] (AR v2)
Copy OK

Track 3

Filename E:\FLAC\Burn To Blu-ray\Roger Taylor\[2021.10.01] Outsider (Japanese SHM-CD)\03 - More Kicks - Long Day’s Journey Into Night… Life.wav

Peak level 88.7 %
Extraction speed 3.0 X
Track quality 100.0 %
Test CRC DFC0699B
Copy CRC DFC0699B
Accurately ripped (confidence 1) [BDC330CA] (AR v2)
Copy OK

Track 4

Filename E:\FLAC\Burn To Blu-ray\Roger Taylor\[2021.10.01] Outsider (Japanese SHM-CD)\04 - Absolutely Anything.wav

Peak level 88.9 %
Extraction speed 2.6 X
Track quality 99.9 %
Test CRC 84819143
Copy CRC 84819143
Accurately ripped (confidence 1) [077D39CA] (AR v2)
Copy OK

Track 5

Filename E:\FLAC\Burn To Blu-ray\Roger Taylor\[2021.10.01] Outsider (Japanese SHM-CD)\05 - Gangsters Are Running This World.wav

Peak level 89.4 %
Extraction speed 3.5 X
Track quality 100.0 %
Test CRC BA89AF5C
Copy CRC BA89AF5C
Accurately ripped (confidence 1) [E55A5FD7] (AR v2)
Copy OK

Track 6

Filename E:\FLAC\Burn To Blu-ray\Roger Taylor\[2021.10.01] Outsider (Japanese SHM-CD)\06 - We’re All Just Trying To Get By - Feat. KT Tunstall.wav

Peak level 96.3 %
Extraction speed 2.4 X
Track quality 99.9 %
Test CRC 32C5DBCC
Copy CRC 32C5DBCC
Accurately ripped (confidence 1) [57B54EB8] (AR v2)
Copy OK

Track 7

Filename E:\FLAC\Burn To Blu-ray\Roger Taylor\[2021.10.01] Outsider (Japanese SHM-CD)\07 - Gangsters Are Running This World - Purple Version.wav

Peak level 89.9 %
Extraction speed 3.4 X
Track quality 100.0 %
Test CRC AD7301EA
Copy CRC AD7301EA
Accurately ripped (confidence 1) [544C98AC] (AR v2)
Copy OK

Track 8

Filename E:\FLAC\Burn To Blu-ray\Roger Taylor\[2021.10.01] Outsider (Japanese SHM-CD)\08 - Isolation.wav

Peak level 88.7 %
Extraction speed 3.8 X
Track quality 100.0 %
Test CRC 0BB0A26B
Copy CRC 0BB0A26B
Accurately ripped (confidence 1) [47FF4446] (AR v2)
Copy OK

Track 9

Filename E:\FLAC\Burn To Blu-ray\Roger Taylor\[2021.10.01] Outsider (Japanese SHM-CD)\09 - The Clapping Song.wav

Peak level 90.1 %
Extraction speed 3.7 X
Track quality 100.0 %
Test CRC 4F45FEC3
Copy CRC 4F45FEC3
Accurately ripped (confidence 1) [9AB738EE] (AR v2)
Copy OK

Track 10

Filename E:\FLAC\Burn To Blu-ray\Roger Taylor\[2021.10.01] Outsider (Japanese SHM-CD)\10 - Outsider.wav

Peak level 84.6 %
Extraction speed 4.0 X
Track quality 100.0 %
Test CRC 4C215004
Copy CRC 4C215004
Accurately ripped (confidence 1) [6BEEF375] (AR v2)
Copy OK

Track 11

Filename E:\FLAC\Burn To Blu-ray\Roger Taylor\[2021.10.01] Outsider (Japanese SHM-CD)\11 - Foreign Sand - English Mix.wav

Peak level 76.9 %
Extraction speed 4.0 X
Track quality 100.0 %
Test CRC 36C30880
Copy CRC 36C30880
Accurately ripped (confidence 1) [4C12AA76] (AR v2)
Copy OK

Track 12

Filename E:\FLAC\Burn To Blu-ray\Roger Taylor\[2021.10.01] Outsider (Japanese SHM-CD)\12 - Journey’s End.wav

Peak level 88.3 %
Extraction speed 3.9 X
Track quality 99.9 %
Test CRC F4535B4C
Copy CRC F4535B4C
Accurately ripped (confidence 1) [5A27EE01] (AR v2)
Copy OK

Track 13

Filename E:\FLAC\Burn To Blu-ray\Roger Taylor\[2021.10.01] Outsider (Japanese SHM-CD)\13 - Surrender (2021 Remix by Filippo Cimatti).wav

Peak level 66.8 %
Extraction speed 3.4 X
Track quality 99.9 %
Test CRC A4981078
Copy CRC A4981078
Accurately ripped (confidence 1) [8AF03BED] (AR v2)
Copy OK

Track 14

Filename E:\FLAC\Burn To Blu-ray\Roger Taylor\[2021.10.01] Outsider (Japanese SHM-CD)\14 - London Town – C’mon Down (2021 Remix by Filippo Cimatti).wav

Peak level 63.0 %
Extraction speed 5.0 X
Track quality 100.0 %
Test CRC 37BF76C8
Copy CRC 37BF76C8
Accurately ripped (confidence 1) [53F12F35] (AR v2)
Copy OK


All tracks accurately ripped

No errors occurred

End of status report

–– CUETools DB Plugin V2.1.6

[CTDB TOCID: ZFendA0Qzeh8uRhAWzTPVhDC5Nw-] found
Submit result: ZFendA0Qzeh8uRhAWzTPVhDC5Nw- has been confirmed
Track | CTDB Status
1 | (8/8) Accurately ripped
2 | (8/8) Accurately ripped
3 | (8/8) Accurately ripped
4 | (8/8) Accurately ripped
5 | (8/8) Accurately ripped
6 | (8/8) Accurately ripped
7 | (8/8) Accurately ripped
8 | (8/8) Accurately ripped
9 | (8/8) Accurately ripped
10 | (8/8) Accurately ripped
11 | (8/8) Accurately ripped
12 | (8/8) Accurately ripped
13 | (8/8) Accurately ripped
14 | (8/8) Accurately ripped


==== Log checksum 637834D9B6E62F270E1FB6C88F22353BB039206FE53E6E5216FF590B77258150 ====

Thanks to the Original ripper !