Subcategories

The Rolling Stones - Exile On Main St. (1972) {Japan Mini LP, TOCP-66452}

Posted By: ruskaval
The Rolling Stones - Exile On Main St. (1972) {Japan Mini LP, TOCP-66452}

The Rolling Stones - Exile On Main St. (1972) {Japan Mini LP, TOCP-66452}
EAC rip (secure mode) | FLAC+CUE+LOG -> 435 Mb | MP3 @320 -> 156 Mb
Full Artwork @ 300 dpi (jpg) -> 30 Mb
© 2005 Toshiba-EMI / Virgin | TOCP-66452
Rock / Blues Rock / Hard Rock

Greeted with decidedly mixed reviews upon its original release, Exile on Main St. has become generally regarded as the Rolling Stones' finest album. Part of the reason why the record was initially greeted with hesitant reviews is that it takes a while to assimilate. A sprawling, weary double album encompassing rock & roll, blues, soul, and country, Exile doesn't try anything new on the surface, but the substance is new. Taking the bleakness that underpinned Let It Bleed and Sticky Fingers to an extreme, Exile is a weary record, and not just lyrically. Mick Jagger's vocals are buried in the mix, and the music is a series of dark, dense jams, with Keith Richards and Mick Taylor spinning off incredible riffs and solos. And the songs continue the breakthroughs of their three previous albums. No longer does their country sound forced or kitschy – it's lived-in and complex, just like the group's forays into soul and gospel. While the songs, including the masterpieces "Rocks Off," "Tumbling Dice," "Torn and Frayed," "Happy," "Let It Loose," and "Shine a Light," are all terrific, they blend together, with only certain lyrics and guitar lines emerging from the murk. It's the kind of record that's gripping on the very first listen, but each subsequent listen reveals something new. Few other albums, let alone double albums, have been so rich and masterful as Exile on Main St., and it stands not only as one of the Stones' best records, but sets a remarkably high standard for all of hard rock.
tracklist:
01 - Rocks Off
02 - Rip This Joint
03 - Shake Your Hips
04 - Casino Boogie
05 - Tumbling Dice
06 - Sweet Virginia
07 - Torn And Frayed
08 - Sweet Black Angel
09 - Loving Cup
10 - Happy
11 - Turd On The Run
12 - Ventilator Blues
13 - I Just Want To See His Face
14 - Let It Loose
15 - All Down The Line
16 - Stop Breaking Down
17 - Shine A Light
18 - Soul Survivor

The Rolling Stones - Exile On Main St. (1972) {Japan Mini LP, TOCP-66452}

Exact Audio Copy V0.99 prebeta 5 from 4. May 2009

EAC extraction logfile from 27. September 2009, 11:55

The Rolling Stones / Exile on Main St.

Used drive : TSSTcorpCD/DVDW TS-H552L Adapter: 3 ID: 0

Read mode : Secure
Utilize accurate stream : Yes
Defeat audio cache : Yes
Make use of C2 pointers : No

Read offset correction : 6
Overread into Lead-In and Lead-Out : No
Fill up missing offset samples with silence : Yes
Delete leading and trailing silent blocks : No
Null samples used in CRC calculations : Yes
Used interface : Native Win32 interface for Win NT & 2000
Gap handling : Appended to previous track

Used output format : User Defined Encoder
Selected bitrate : 1024 kBit/s
Quality : High
Add ID3 tag : No
Command line compressor : C:\Program Files\FLAC\flac.exe
Additional command line options : -6 -V -T "ARTIST=%a" -T "TITLE=%t" -T "ALBUM=%g" -T "DATE=%y" -T "TRACKNUMBER=%n" -T "GENRE=%m" -T "COMMENT=EAC FLAC -6" %s


TOC of the extracted CD

Track | Start | Length | Start sector | End sector
––––––––––––––––––––––––––––-
1 | 0:00.00 | 4:33.22 | 0 | 20496
2 | 4:33.22 | 2:23.03 | 20497 | 31224
3 | 6:56.25 | 2:59.47 | 31225 | 44696
4 | 9:55.72 | 3:34.48 | 44697 | 60794
5 | 13:30.45 | 3:47.37 | 60795 | 77856
6 | 17:18.07 | 4:26.30 | 77857 | 97836
7 | 21:44.37 | 4:18.13 | 97837 | 117199
8 | 26:02.50 | 2:58.02 | 117200 | 130551
9 | 29:00.52 | 4:25.63 | 130552 | 150489
10 | 33:26.40 | 3:05.00 | 150490 | 164364
11 | 36:31.40 | 2:38.20 | 164365 | 176234
12 | 39:09.60 | 3:24.17 | 176235 | 191551
13 | 42:34.02 | 2:53.58 | 191552 | 204584
14 | 45:27.60 | 5:18.55 | 204585 | 228489
15 | 50:46.40 | 3:50.07 | 228490 | 245746
16 | 54:36.47 | 4:34.28 | 245747 | 266324
17 | 59:11.00 | 4:16.65 | 266325 | 285589
18 | 63:27.65 | 3:48.35 | 285590 | 302724


Track 1

Filename C:\The Rolling Stones - Exile On Main St. (1972) {Japan Mini LP, TOCP-66452}\01 - Rocks Off.wav

Pre-gap length 0:00:02.00

Peak level 100.0 %
Track quality 99.9 %
Test CRC D23F9203
Copy CRC D23F9203
Track not present in AccurateRip database
Copy OK

Track 2

Filename C:\The Rolling Stones - Exile On Main St. (1972) {Japan Mini LP, TOCP-66452}\02 - Rip This Joint.wav

Pre-gap length 0:00:01.35

Peak level 100.0 %
Track quality 100.0 %
Test CRC E44AE80C
Copy CRC E44AE80C
Track not present in AccurateRip database
Copy OK

Track 3

Filename C:\The Rolling Stones - Exile On Main St. (1972) {Japan Mini LP, TOCP-66452}\03 - Shake Your Hips.wav

Peak level 83.7 %
Track quality 99.9 %
Test CRC B5934AEF
Copy CRC B5934AEF
Track not present in AccurateRip database
Copy OK

Track 4

Filename C:\The Rolling Stones - Exile On Main St. (1972) {Japan Mini LP, TOCP-66452}\04 - Casino Boogie.wav

Pre-gap length 0:00:00.52

Peak level 99.9 %
Track quality 100.0 %
Test CRC FBCFD28B
Copy CRC FBCFD28B
Track not present in AccurateRip database
Copy OK

Track 5

Filename C:\The Rolling Stones - Exile On Main St. (1972) {Japan Mini LP, TOCP-66452}\05 - Tumbling Dice.wav

Pre-gap length 0:00:01.38

Peak level 98.6 %
Track quality 100.0 %
Test CRC 3EFBC58B
Copy CRC 3EFBC58B
Accurately ripped (confidence 2) [91164E96]
Copy OK

Track 6

Filename C:\The Rolling Stones - Exile On Main St. (1972) {Japan Mini LP, TOCP-66452}\06 - Sweet Virginia.wav

Pre-gap length 0:00:02.00

Peak level 100.0 %
Track quality 100.0 %
Test CRC F2E5529C
Copy CRC F2E5529C
Track not present in AccurateRip database
Copy OK

Track 7

Filename C:\The Rolling Stones - Exile On Main St. (1972) {Japan Mini LP, TOCP-66452}\07 - Torn & Frayed.wav

Pre-gap length 0:00:00.62

Peak level 100.0 %
Track quality 100.0 %
Test CRC D0684579
Copy CRC D0684579
Track not present in AccurateRip database
Copy OK

Track 8

Filename C:\The Rolling Stones - Exile On Main St. (1972) {Japan Mini LP, TOCP-66452}\08 - Sweet Black Angel.wav

Pre-gap length 0:00:01.25

Peak level 99.6 %
Track quality 100.0 %
Test CRC 69D50882
Copy CRC 69D50882
Track not present in AccurateRip database
Copy OK

Track 9

Filename C:\The Rolling Stones - Exile On Main St. (1972) {Japan Mini LP, TOCP-66452}\09 - Loving Cup.wav

Pre-gap length 0:00:03.45

Peak level 100.0 %
Track quality 100.0 %
Test CRC 63D5205C
Copy CRC 63D5205C
Track not present in AccurateRip database
Copy OK

Track 10

Filename C:\The Rolling Stones - Exile On Main St. (1972) {Japan Mini LP, TOCP-66452}\10 - Happy.wav

Pre-gap length 0:00:02.18

Peak level 99.9 %
Track quality 100.0 %
Test CRC AF6819B8
Copy CRC AF6819B8
Accurately ripped (confidence 2) [50398DC5]
Copy OK

Track 11

Filename C:\The Rolling Stones - Exile On Main St. (1972) {Japan Mini LP, TOCP-66452}\11 - Turd On The Run.wav

Pre-gap length 0:00:00.48

Peak level 85.3 %
Track quality 100.0 %
Test CRC 840BE2AC
Copy CRC 840BE2AC
Track not present in AccurateRip database
Copy OK

Track 12

Filename C:\The Rolling Stones - Exile On Main St. (1972) {Japan Mini LP, TOCP-66452}\12 - Ventilator Blues.wav

Pre-gap length 0:00:01.43

Peak level 99.9 %
Track quality 99.9 %
Test CRC EC104E73
Copy CRC EC104E73
Track not present in AccurateRip database
Copy OK

Track 13

Filename C:\The Rolling Stones - Exile On Main St. (1972) {Japan Mini LP, TOCP-66452}\13 - I Just Want To See His Face.wav

Peak level 86.6 %
Track quality 100.0 %
Test CRC 71710BB6
Copy CRC 71710BB6
Track not present in AccurateRip database
Copy OK

Track 14

Filename C:\The Rolling Stones - Exile On Main St. (1972) {Japan Mini LP, TOCP-66452}\14 - Let It Loose.wav

Pre-gap length 0:00:01.35

Peak level 100.0 %
Track quality 100.0 %
Test CRC 66FC0EB7
Copy CRC 66FC0EB7
Track not present in AccurateRip database
Copy OK

Track 15

Filename C:\The Rolling Stones - Exile On Main St. (1972) {Japan Mini LP, TOCP-66452}\15 - All Down The Line.wav

Pre-gap length 0:00:02.13

Peak level 100.0 %
Track quality 100.0 %
Test CRC EF6EAA8A
Copy CRC EF6EAA8A
Track not present in AccurateRip database
Copy OK

Track 16

Filename C:\The Rolling Stones - Exile On Main St. (1972) {Japan Mini LP, TOCP-66452}\16 - Stop Breaking Down.wav

Pre-gap length 0:00:01.10

Peak level 99.6 %
Track quality 100.0 %
Test CRC 1FB2F543
Copy CRC 1FB2F543
Track not present in AccurateRip database
Copy OK

Track 17

Filename C:\The Rolling Stones - Exile On Main St. (1972) {Japan Mini LP, TOCP-66452}\17 - Shine A Light.wav

Peak level 98.8 %
Track quality 100.0 %
Test CRC 903E71C1
Copy CRC 903E71C1
Track not present in AccurateRip database
Copy OK

Track 18

Filename C:\The Rolling Stones - Exile On Main St. (1972) {Japan Mini LP, TOCP-66452}\18 - Soul Survivor.wav

Pre-gap length 0:00:02.60

Peak level 100.0 %
Track quality 99.9 %
Test CRC E0A4BDBC
Copy CRC E0A4BDBC
Track not present in AccurateRip database
Copy OK


2 track(s) accurately ripped
16 track(s) not present in the AccurateRip database

Some tracks could not be verified as accurate

No errors occurred

End of status report