Subcategories

Ron Carter & Danny Simmons - The Brown Beatnik Tomes (2019) {Blue Note 0060257752454}

Posted By: ruskaval
Ron Carter & Danny Simmons - The Brown Beatnik Tomes (2019) {Blue Note 0060257752454}

Ron Carter & Danny Simmons - The Brown Beatnik Tomes (2019) {Blue Note 0060257752454}
EAC rip (secure mode) | FLAC (tracks)+CUE+LOG -> 165 Mb | MP3 @320 -> 75 Mb
Full Artwork @ 300 dpi (png) -> 85 Mb | 5% repair rar
© 2019 Blue Note / KMW Studio / UMG | 0060257752454
Jazz / Spoken Word / Straight-Ahead Jazz / Beat Poetry

Ron Carter has always been way more than a straight jazz bassist – especially in the past few decades, where his collaborative spirit has taken him into territory we never would have imagined early on in his career! Here, he works alongside writer Danny Simmons – whose words inform most of these tracks, read by Simmons himself. Carter plays these amazing basslines that are vivid and illustrative while Danny reeds – and a few tracks change up the approach slightly, one with a reading from Liza Jessie Peterson, two more with trio performances that feature Donald Vega on piano and Russel Malone on guitar.
Ron Carter & Danny Simmons - The Brown Beatnik Tomes (2019) {Blue Note 0060257752454}

Recorded at Brooklyn's BRIC House, The Brown Beatnik Tomes features bassist Ron Carter collaborating with poet and painter Danny Simmons in a live concert setting, transforming works from Simmons' book Brown Beatnik Tomes into a stirring multimedia performance experience. The poems represent Simmons' inspiration to update the style and voice of iconic beat authors like Lawrence Ferlinghetti, Jack Kerouac, and Allen Ginsberg, but from a contemporary African-American perspective. In keeping with the coffeehouse style of the original beatniks, these are intimate acoustic performances in which Simmons delivers his literate, evocative spoken-word poems as Carter offers sympathetic walking bassline accents and bluesy grooves. The performance even included projections of the paintings Simmons made to accompany the poems in his book. On the album, we get the declamatory "The Final Stand of Two Dick Willie," the tribute to the late writer Amiri Baraka "For a Pistol," and the sensual "Tender." Also making an appearance is poet and activist Liza Jessie Peterson, who joins Carter for a reading of her timely piece "Where Do I Begin," a composition that opens with a striking list of notable names, including Sandra Bland, Freddie Grey, Eric Garner, and other African-Americans who suffered violent deaths. All of these poems are deeply thoughtful and visually compelling, touching upon themes of racism, police brutality, spirituality, politics, and freedom. Also included are two instrumental performances featuring Carter's trio with pianist Donald Vega and guitarist Russell Malone, including urbane renditions of "Here's to Oscar" and "There Will Never Be Another You."
Ron Carter & Danny Simmons - The Brown Beatnik Tomes (2019) {Blue Note 0060257752454}


Tracks
01 - For A Pistol
02 - The Final Stand Of Two Dick Willie
03 - Feeling It Coming On
04 - Tender
05 - Here's To Oscar
06 - Where Do I Begin
07 - There Will Never Be Another You
08 - The Jigaboo Waltz
09 - The Brown Beatnik Tomes

Exact Audio Copy V1.3 from 2. September 2016

EAC extraction logfile from 30. September 2019, 10:20

Ron Carter Danny Simmons / The Brown Beatnik Tomes

Used drive : ATAPI iHBS112 2 Adapter: 1 ID: 1

Read mode : Secure
Utilize accurate stream : Yes
Defeat audio cache : Yes
Make use of C2 pointers : No

Read offset correction : 6
Overread into Lead-In and Lead-Out : No
Fill up missing offset samples with silence : Yes
Delete leading and trailing silent blocks : No
Null samples used in CRC calculations : Yes
Used interface : Native Win32 interface for Win NT & 2000
Gap handling : Appended to previous track

Used output format : User Defined Encoder
Selected bitrate : 768 kBit/s
Quality : High
Add ID3 tag : No
Command line compressor : C:\Program Files (x86)\Exact Audio Copy\Flac\flac.exe
Additional command line options : -8 -V -T "ARTIST=%artist%" -T "TITLE=%title%" -T "ALBUM=%albumtitle%" -T "DATE=%year%" -T "TRACKNUMBER=%tracknr%" -T "GENRE=%genre%" -T "PERFORMER=%albuminterpret%" -T "COMPOSER=%composer%" -T "ALBUMARTIST=%albumartist%" -T "DISCNUMBER=%cdnumber%" -T "TOTALDISCS=%totalcds%" -T "TOTALTRACKS=%numtracks%" -T "COMMENT=EAC Secure Mode, Test & Copy, AccurateRip, FLAC -8" %source% -o %dest%


TOC of the extracted CD

Track | Start | Length | Start sector | End sector
––––––––––––––––––––––––––––-
1 | 0:00.00 | 2:19.46 | 0 | 10470
2 | 2:19.46 | 1:22.07 | 10471 | 16627
3 | 3:41.53 | 1:48.35 | 16628 | 24762
4 | 5:30.13 | 2:40.70 | 24763 | 36832
5 | 8:11.08 | 2:52.60 | 36833 | 49792
6 | 11:03.68 | 7:10.46 | 49793 | 82088
7 | 18:14.39 | 2:07.08 | 82089 | 91621
8 | 20:21.47 | 8:10.31 | 91622 | 128402
9 | 28:32.03 | 2:45.14 | 128403 | 140791


Track 1

Filename G:\DL\Ron Carter & Danny Simmons - The Brown Beatnik Tomes (2019) [FLAC]\01 - For A Pistol.wav

Pre-gap length 0:00:02.00

Peak level 94.3 %
Extraction speed 1.7 X
Track quality 100.0 %
Test CRC 1E63CA1D
Copy CRC 1E63CA1D
Accurately ripped (confidence 1) [AA8A738B] (AR v2)
Copy OK

Track 2

Filename G:\DL\Ron Carter & Danny Simmons - The Brown Beatnik Tomes (2019) [FLAC]\02 - The Final Stand Of Two Dick Willie.wav

Peak level 94.3 %
Extraction speed 1.6 X
Track quality 100.0 %
Test CRC 4C8FD6A5
Copy CRC 4C8FD6A5
Accurately ripped (confidence 1) [19C57E64] (AR v2)
Copy OK

Track 3

Filename G:\DL\Ron Carter & Danny Simmons - The Brown Beatnik Tomes (2019) [FLAC]\03 - Feeling It Coming On.wav

Peak level 94.3 %
Extraction speed 1.8 X
Track quality 100.0 %
Test CRC F99DF5BB
Copy CRC F99DF5BB
Accurately ripped (confidence 1) [2BBE9E97] (AR v2)
Copy OK

Track 4

Filename G:\DL\Ron Carter & Danny Simmons - The Brown Beatnik Tomes (2019) [FLAC]\04 - Tender.wav

Peak level 94.3 %
Extraction speed 2.1 X
Track quality 100.0 %
Test CRC 6F439BCB
Copy CRC 6F439BCB
Accurately ripped (confidence 1) [302C053B] (AR v2)
Copy OK

Track 5

Filename G:\DL\Ron Carter & Danny Simmons - The Brown Beatnik Tomes (2019) [FLAC]\05 - Here's To Oscar.wav

Peak level 94.3 %
Extraction speed 2.2 X
Track quality 100.0 %
Test CRC 2469A82D
Copy CRC 2469A82D
Accurately ripped (confidence 1) [4A863A8C] (AR v2)
Copy OK

Track 6

Filename G:\DL\Ron Carter & Danny Simmons - The Brown Beatnik Tomes (2019) [FLAC]\06 - Where Do I Begin.wav

Peak level 94.3 %
Extraction speed 2.3 X
Track quality 99.9 %
Test CRC 52F80A83
Copy CRC 52F80A83
Accurately ripped (confidence 1) [972506BD] (AR v2)
Copy OK

Track 7

Filename G:\DL\Ron Carter & Danny Simmons - The Brown Beatnik Tomes (2019) [FLAC]\07 - There Will Never Be Another You.wav

Peak level 94.3 %
Extraction speed 1.5 X
Track quality 99.9 %
Test CRC 1CB1AE21
Copy CRC 1CB1AE21
Accurately ripped (confidence 1) [86E4024D] (AR v2)
Copy OK

Track 8

Filename G:\DL\Ron Carter & Danny Simmons - The Brown Beatnik Tomes (2019) [FLAC]\08 - The Jigaboo Waltz.wav

Peak level 94.3 %
Extraction speed 3.1 X
Track quality 100.0 %
Test CRC 73B4204C
Copy CRC 73B4204C
Accurately ripped (confidence 1) [4E5970B0] (AR v2)
Copy OK

Track 9

Filename G:\DL\Ron Carter & Danny Simmons - The Brown Beatnik Tomes (2019) [FLAC]\09 - The Brown Beatnik Tomes.wav

Peak level 94.3 %
Extraction speed 3.0 X
Track quality 100.0 %
Test CRC 0C657E39
Copy CRC 0C657E39
Accurately ripped (confidence 1) [6146F680] (AR v2)
Copy OK


All tracks accurately ripped

No errors occurred

End of status report

–– CUETools DB Plugin V2.1.6

[CTDB TOCID: nb2f9.cNJTzi4j8F1DHBrBi14E4-] found
Submit result: nb2f9.cNJTzi4j8F1DHBrBi14E4- has been confirmed
Track | CTDB Status
1 | (1/1) Accurately ripped
2 | (1/1) Accurately ripped
3 | (1/1) Accurately ripped
4 | (1/1) Accurately ripped
5 | (1/1) Accurately ripped
6 | (1/1) Accurately ripped
7 | (1/1) Accurately ripped
8 | (1/1) Accurately ripped
9 | (1/1) Accurately ripped


==== Log checksum 17D508F813A9C063EA8A608F294C7A852337778942111764CBFAE9CD0162FD7F ====


Ron Carter & Danny Simmons - The Brown Beatnik Tomes (2019) {Blue Note 0060257752454}



===