Subcategories

Ronnie Scott & The Band - Live at Ronnie Scott's (1968)

Posted By: intothe
Ronnie Scott & The Band - Live at Ronnie Scott's (1968)

Ronnie Scott & The Band - Live at Ronnie Scott's (1968)
Jazz | EAC rip (FLAC+CUE+LOG) | 309 MB | full covers
Sony (SBM, 1999) | 47:19 | RAR with 5% recovery


EAC extraction logfile from 4. May 2009, 8:20

Live at Ronnie Scott's / Ronnie Scott & The Band

Used drive : _NEC DVD_RW ND-3500AG Adapter: 0 ID: 0

Read mode : Secure
Utilize accurate stream : Yes
Defeat audio cache : Yes
Make use of C2 pointers : No

Read offset correction : 48
Overread into Lead-In and Lead-Out : No
Fill up missing offset samples with silence : Yes
Delete leading and trailing silent blocks : No
Null samples used in CRC calculations : Yes
Used interface : Native Win32 interface for Win NT & 2000

Used output format : User Defined Encoder
Selected bitrate : 768 kBit/s
Quality : High
Add ID3 tag : No
Command line compressor : C:\Program Files\Exact Audio Copy\FLAC\FLAC.EXE
Additional command line options : -6 -V -T "ARTIST=%a" -T "TITLE=%t" -T "ALBUM=%g" -T "DATE=%y" -T "TRACKNUMBER=%n" -T "GENRE=%m" -T "COMMENT=%e" %s -o %d


TOC of the extracted CD

Track | Start | Length | Start sector | End sector
––––––––––––––––––––––––––––-
1 | 0:00.00 | 4:37.17 | 0 | 20791
2 | 4:37.17 | 6:49.65 | 20792 | 51531
3 | 11:27.07 | 7:22.18 | 51532 | 84699
4 | 18:49.25 | 6:30.12 | 84700 | 113961
5 | 25:19.37 | 6:18.73 | 113962 | 142384
6 | 31:38.35 | 5:10.62 | 142385 | 165696
7 | 36:49.22 | 10:32.20 | 165697 | 213116


Range status and errors

Selected range

Filename J:\eMusic\Rip\Live at Ronnie Scott's - Ronnie Scott & The Band.wav

Peak level 98.8 %
Range quality 99.9 %
Copy CRC 2473FC60
Copy OK

No errors occurred


AccurateRip summary

Track 1 not present in database
Track 2 not present in database
Track 3 not present in database
Track 4 not present in database
Track 5 not present in database
Track 6 not present in database
Track 7 not present in database

None of the tracks are present in the AccurateRip database

End of status report


Ronnie Scott's post bop modern playing was bold and authoritative, and he absorbed many influences including Zoot Sims, Stan Getz and Lester Young. He could play a powerful blues followed by an exquisite ballad with an instantly recognisable sound and style. He was always a jazz man, his bands and groups never compromised. His death in 1996, following a period of despair and inactivity, left a gap in British modern jazz. He has been much missed. He truly was the father of British modern jazz. - from http://vzone.virgin.net/davidh.taylor/scott.htm

Tracks:
1. Recorda Me (Remember Me) (Joe Henderson) 4:37
2. King Pete (Laurie Holloway) 6:49
3. Second Question (Kenny Wheeler) 7:22
4. Marmasita (Joe Henderson) 6:30
5. Too Late,Too Late (Mike Westbrook) 6:19
6. Lord Of The Reddy River (Donovan Leitch) 5:10
7. Macumba (Gordon Beck) 10:32

Personnel:
Ronnie Scott (Tenor Saxophone)
John Surman (Baritone and Soprano Saxophone)
Ray Warleigh (Alto Saxophone and Flute)
Kenny Clarke (Drums)
Gordon Beck (Piano and Organ)
Chris Payne (Trombone)
Ron Matthewson (Double Bass)
Kenny Wheeler (Trumpet and Flugelhorn)
Tony Oxley (Drums)

Dlink