Subcategories

Rostropovich Conducts Prokofiev - The Complete Symphonies (2008)

Posted By: luckburz
Rostropovich Conducts Prokofiev - The Complete Symphonies (2008)

Rostropovich Conducts Prokofiev - The Complete Symphonies
EAC+LOG+CUE | FLAC: 1,13 GB | Full Artwork | 5% Recovery Info
Label/Cat#: Erato, Warner # 2564 69675-5 | Country/Year: Europe 2008
Genre: Classical | Style: Contemporary

MD5 [X] CUE [X] LOG [X] INFO TEXT [X] ARTWORK [X]

selfrip [X] not my rip []

Rostropovich Conducts Prokofiev - The Complete Symphonies (2008)


Exact Audio Copy V1.0 beta 3 from 29. August 2011

EAC extraction logfile from 1. October 2012, 16:01

Orchestre National de France & Mstislav Rostropovich / Rostropovich Conduct Prokofiev - The Complete Symphonies (Disc 1)

Used drive : PIONEER BD-RW BDR-206 Adapter: 0 ID: 2

Read mode : Secure
Utilize accurate stream : Yes
Defeat audio cache : Yes
Make use of C2 pointers : No

Read offset correction : 667
Overread into Lead-In and Lead-Out : No
Fill up missing offset samples with silence : Yes
Delete leading and trailing silent blocks : No
Null samples used in CRC calculations : Yes
Used interface : Native Win32 interface for Win NT & 2000

Used output format : User Defined Encoder
Selected bitrate : 1024 kBit/s
Quality : High
Add ID3 tag : Yes
Command line compressor : C:\Program Files\FLAC\flac.exe
Additional command line options : -5 -T "Artist=%artist%" -T "Title=%title%" -T "Album=%albumtitle%" -T "Date=%year%" -T "Tracknumber=%tracknr%" -T "Genre=%genre%" %source% -o %dest%


TOC of the extracted CD

Track | Start | Length | Start sector | End sector
––––––––––––––––––––––––––––-
1 | 0:00.00 | 7:34.50 | 0 | 34099
2 | 7:34.50 | 7:14.10 | 34100 | 66659
3 | 14:48.60 | 5:38.65 | 66660 | 92074
4 | 20:27.50 | 8:01.43 | 92075 | 128192
5 | 28:29.18 | 15:35.20 | 128193 | 198337
6 | 44:04.38 | 9:56.37 | 198338 | 243074
7 | 54:01.00 | 6:50.58 | 243075 | 273882
8 | 60:51.58 | 10:26.73 | 273883 | 320905


Range status and errors

Selected range

Filename F:\=== VINYL RIPS ===\=== EAC===\X FRESH RIP\Rostropovich Conduct Prokofiev - The Complete Symphonies (Disc 1).wav

Peak level 99.8 %
Extraction speed 8.0 X
Range quality 100.0 %
Test CRC 32968752
Copy CRC 32968752
Copy OK

No errors occurred


AccurateRip summary

Track 1 accurately ripped (confidence 2) [F232DE2E] (AR v1)
Track 2 accurately ripped (confidence 2) [5860E84E] (AR v1)
Track 3 accurately ripped (confidence 2) [1DC41D43] (AR v1)
Track 4 accurately ripped (confidence 2) [2DBC0FAE] (AR v1)
Track 5 accurately ripped (confidence 2) [44F7957C] (AR v1)
Track 6 accurately ripped (confidence 2) [94146F7E] (AR v1)
Track 7 accurately ripped (confidence 2) [D1A232C4] (AR v1)
Track 8 accurately ripped (confidence 2) [25DE3579] (AR v1)

All tracks accurately ripped

End of status report

–– CUETools DB Plugin V2.1.3

[CTDB TOCID: .816zQIzKbREkB4XyMCgfXAZ5o4-] disk not present in database, Submit result: .816zQIzKbREkB4XyMCgfXAZ5o4- has been uploaded


==== Log checksum A1522A65D0935C93AE3620C975111B4D7A2964BCBC81408CA1542452AB77690F ====

Exact Audio Copy V1.0 beta 3 from 29. August 2011

EAC extraction logfile from 1. October 2012, 16:19

Orchestre National de France & Mstislav Rostropovich / Rostropovich Conduct Prokofiev - The Complete Symphonies (Disc 2)

Used drive : PIONEER BD-RW BDR-206 Adapter: 0 ID: 2

Read mode : Secure
Utilize accurate stream : Yes
Defeat audio cache : Yes
Make use of C2 pointers : No

Read offset correction : 667
Overread into Lead-In and Lead-Out : No
Fill up missing offset samples with silence : Yes
Delete leading and trailing silent blocks : No
Null samples used in CRC calculations : Yes
Used interface : Native Win32 interface for Win NT & 2000

Used output format : User Defined Encoder
Selected bitrate : 1024 kBit/s
Quality : High
Add ID3 tag : Yes
Command line compressor : C:\Program Files\FLAC\flac.exe
Additional command line options : -5 -T "Artist=%artist%" -T "Title=%title%" -T "Album=%albumtitle%" -T "Date=%year%" -T "Tracknumber=%tracknr%" -T "Genre=%genre%" %source% -o %dest%


TOC of the extracted CD

Track | Start | Length | Start sector | End sector
––––––––––––––––––––––––––––-
1 | 0:00.00 | 16:08.57 | 0 | 72656
2 | 16:08.57 | 16:54.45 | 72657 | 148751
3 | 33:03.27 | 12:33.43 | 148752 | 205269
4 | 45:36.70 | 4:46.72 | 205270 | 226791
5 | 50:23.67 | 4:43.60 | 226792 | 248076
6 | 55:07.52 | 1:37.00 | 248077 | 255351
7 | 56:44.52 | 4:23.01 | 255352 | 275077


Range status and errors

Selected range

Filename F:\=== VINYL RIPS ===\=== EAC===\X FRESH RIP\Rostropovich Conduct Prokofiev - The Complete Symphonies (Disc 2).wav

Peak level 91.2 %
Extraction speed 7.8 X
Range quality 100.0 %
Test CRC 7B0585E8
Copy CRC 7B0585E8
Copy OK

No errors occurred


AccurateRip summary

Track 1 accurately ripped (confidence 2) [F0DB0A15] (AR v1)
Track 2 accurately ripped (confidence 2) [0D20D9C2] (AR v1)
Track 3 accurately ripped (confidence 2) [9200731E] (AR v1)
Track 4 accurately ripped (confidence 2) [37D6B153] (AR v1)
Track 5 accurately ripped (confidence 2) [92A61433] (AR v1)
Track 6 accurately ripped (confidence 2) [FB3FE5D0] (AR v1)
Track 7 accurately ripped (confidence 2) [6E381EC3] (AR v1)

All tracks accurately ripped

End of status report

–– CUETools DB Plugin V2.1.3

[CTDB TOCID: Gx3eqgyBg8HkAez2Zng3AtKHBNs-] disk not present in database, Submit result: Gx3eqgyBg8HkAez2Zng3AtKHBNs- has been uploaded


==== Log checksum ABD5C585B6B1BAC616E46BB35B3F561E50BF537D38B71350E6F652080C68CE86 ====

Exact Audio Copy V1.0 beta 3 from 29. August 2011

EAC extraction logfile from 1. October 2012, 16:39

Orchestre National de France & Mstislav Rostropovich / Rostropovich Conduct Prokofiev - The Complete Symphonies (Disc 3)

Used drive : PIONEER BD-RW BDR-206 Adapter: 0 ID: 2

Read mode : Secure
Utilize accurate stream : Yes
Defeat audio cache : Yes
Make use of C2 pointers : No

Read offset correction : 667
Overread into Lead-In and Lead-Out : No
Fill up missing offset samples with silence : Yes
Delete leading and trailing silent blocks : No
Null samples used in CRC calculations : Yes
Used interface : Native Win32 interface for Win NT & 2000

Used output format : User Defined Encoder
Selected bitrate : 1024 kBit/s
Quality : High
Add ID3 tag : Yes
Command line compressor : C:\Program Files\FLAC\flac.exe
Additional command line options : -5 -T "Artist=%artist%" -T "Title=%title%" -T "Album=%albumtitle%" -T "Date=%year%" -T "Tracknumber=%tracknr%" -T "Genre=%genre%" %source% -o %dest%


TOC of the extracted CD

Track | Start | Length | Start sector | End sector
––––––––––––––––––––––––––––-
1 | 0:00.00 | 12:54.18 | 0 | 58067
2 | 12:54.18 | 24:52.67 | 58068 | 170034
3 | 37:47.10 | 13:11.55 | 170035 | 229414
4 | 50:58.65 | 7:03.40 | 229415 | 261179
5 | 58:02.30 | 8:18.23 | 261180 | 298552
6 | 66:20.53 | 6:32.05 | 298553 | 327957


Range status and errors

Selected range

Filename F:\=== VINYL RIPS ===\=== EAC===\X FRESH RIP\Rostropovich Conduct Prokofiev - The Complete Symphonies (Disc 3).wav

Peak level 87.0 %
Extraction speed 8.0 X
Range quality 99.9 %
Test CRC 0B5CA2BE
Copy CRC 0B5CA2BE
Copy OK

No errors occurred


AccurateRip summary

Track 1 accurately ripped (confidence 2) [DE87A0BE] (AR v1)
Track 2 accurately ripped (confidence 2) [A33CFA0B] (AR v1)
Track 3 accurately ripped (confidence 2) [DBC63CEF] (AR v1)
Track 4 accurately ripped (confidence 2) [4167558C] (AR v1)
Track 5 accurately ripped (confidence 2) [D1B3FBC7] (AR v1)
Track 6 accurately ripped (confidence 2) [3F1000E2] (AR v1)

All tracks accurately ripped

End of status report

–– CUETools DB Plugin V2.1.3

[CTDB TOCID: KwUl8PKhk0NIWE1y5LOgJ2cUzEw-] disk not present in database, Submit result: KwUl8PKhk0NIWE1y5LOgJ2cUzEw- has been uploaded


==== Log checksum D8AF36ED1FECA93D3C99BCE949D8BFD88E4446D6C97BAC877EE09068C5B812A2 ====

Exact Audio Copy V1.0 beta 3 from 29. August 2011

EAC extraction logfile from 1. October 2012, 17:00

Orchestre National de France & Mstislav Rostropovich / Rostropovich Conduct Prokofiev - The Complete Symphonies (Disc 4)

Used drive : PIONEER BD-RW BDR-206 Adapter: 0 ID: 2

Read mode : Secure
Utilize accurate stream : Yes
Defeat audio cache : Yes
Make use of C2 pointers : No

Read offset correction : 667
Overread into Lead-In and Lead-Out : No
Fill up missing offset samples with silence : Yes
Delete leading and trailing silent blocks : No
Null samples used in CRC calculations : Yes
Used interface : Native Win32 interface for Win NT & 2000

Used output format : User Defined Encoder
Selected bitrate : 1024 kBit/s
Quality : High
Add ID3 tag : Yes
Command line compressor : C:\Program Files\FLAC\flac.exe
Additional command line options : -5 -T "Artist=%artist%" -T "Title=%title%" -T "Album=%albumtitle%" -T "Date=%year%" -T "Tracknumber=%tracknr%" -T "Genre=%genre%" %source% -o %dest%


TOC of the extracted CD

Track | Start | Length | Start sector | End sector
––––––––––––––––––––––––––––-
1 | 0:00.00 | 9:42.23 | 0 | 43672
2 | 9:42.23 | 7:48.00 | 43673 | 78772
3 | 17:30.23 | 6:30.65 | 78773 | 108087
4 | 24:01.13 | 9:33.60 | 108088 | 151122
5 | 33:34.73 | 12:43.67 | 151123 | 208414
6 | 46:18.65 | 8:44.25 | 208415 | 247739
7 | 55:03.15 | 11:57.58 | 247740 | 301572
8 | 67:00.73 | 9:22.58 | 301573 | 343780


Range status and errors

Selected range

Filename F:\=== VINYL RIPS ===\=== EAC===\X FRESH RIP\Rostropovich Conduct Prokofiev - The Complete Symphonies (Disc 4).wav

Peak level 100.0 %
Extraction speed 8.2 X
Range quality 100.0 %
Test CRC 417E1DF3
Copy CRC 417E1DF3
Copy OK

No errors occurred


AccurateRip summary

Track 1 accurately ripped (confidence 2) [8AE0BD35] (AR v1)
Track 2 accurately ripped (confidence 2) [D8C8B7C6] (AR v1)
Track 3 accurately ripped (confidence 2) [74DAEA8D] (AR v1)
Track 4 accurately ripped (confidence 2) [DE6E09C0] (AR v1)
Track 5 accurately ripped (confidence 2) [CE58CB4B] (AR v1)
Track 6 accurately ripped (confidence 2) [92FD7B6C] (AR v1)
Track 7 accurately ripped (confidence 2) [F0BF99A2] (AR v1)
Track 8 not present in database

7 Track(s) akkurat gelesen
1 Track(s) nicht in der AccurateRip Datenbank vorhanden

Some tracks could not be verified as accurate

End of status report

–– CUETools DB Plugin V2.1.3

[CTDB TOCID: hpEZ9UWnNLYTCK8YaQdBBf0jKjU-] disk not present in database, Submit result: hpEZ9UWnNLYTCK8YaQdBBf0jKjU- has been uploaded


==== Log checksum 984BE3B7BDF56D81C654E484A8B81DDCB8E3E072E6F5019E5012E323A4811EE5 ====

foobar2000 1.1.14a / Dynamic Range Meter 1.1.1
log date: 2012-11-06 22:15:04

––––––––––––––––––––––––––––––––––––––––
Analyzed: Orchestre National de France & Mstislav Rostropovich / Rostropovich Conduct Prokofiev - The Complete Symphonies (Disc 1)
––––––––––––––––––––––––––––––––––––––––

DR Peak RMS Duration Track
––––––––––––––––––––––––––––––––––––––––
DR16 -0.31 dB -21.52 dB 7:35 01-Prokofiev.Symphony No.4 in C major, Op.47:I. Andante assai–Allegro eroico
DR13 -7.32 dB -27.38 dB 7:14 02-Prokofiev.Symphony No.4 in C major, Op.47:II. Andante tranquillo
DR14 -9.49 dB -28.76 dB 5:39 03-Prokofiev.Symphony No.4 in C major, Op.47:III. Moderato, quasi allgretto
DR17 -0.01 dB -23.10 dB 8:02 04-Prokofiev.Symphony No.4 in C major, Op.47:IV. Allegro risoluto
DR15 -1.20 dB -22.37 dB 15:35 05-Prokofiev.Symphony No.4 in C major, Op.112:I. Andante–Allegro eroico
DR15 -5.69 dB -27.24 dB 9:56 06-Prokofiev.Symphony No.4 in C major, Op.112:II. Andante tranquillo
DR14 -11.36 dB -31.54 dB 6:51 07-Prokofiev.Symphony No.4 in C major, Op.112:III. Moderato, quasi allegretto
DR16 -1.05 dB -24.08 dB 10:27 08-Prokofiev.Symphony No.4 in C major, Op.112:IV. Allegro risoluto
––––––––––––––––––––––––––––––––––––––––

Number of tracks: 8
Official DR value: DR15

Samplerate: 44100 Hz
Channels: 2
Bits per sample: 16
Bitrate: 550 kbps
Codec: FLAC
================================================================================

––––––––––––––––––––––––––––––––––––––––
Analyzed: Orchestre National de France & Mstislav Rostropovich / Rostropovich Conduct Prokofiev - The Complete Symphonies (Disc 2)
––––––––––––––––––––––––––––––––––––––––

DR Peak RMS Duration Track
––––––––––––––––––––––––––––––––––––––––
DR15 -2.77 dB -23.94 dB 16:09 01-Prokofiev.Symphony No.6 in E flat minor, Op.111:I. Allegro moderato
DR15 -3.77 dB -24.15 dB 16:55 02-Prokofiev.Symphony No.6 in E flat minor, Op.111:II. Largo
DR16 -0.80 dB -22.42 dB 12:34 03-Prokofiev.Symphony No.6 in E flat minor, Op.111:III. Vivace
DR14 -2.80 dB -23.63 dB 4:47 04-Prokofiev.Symphony No.1 in D major, Op.25“Classical”:I. Allegro
DR16 -7.46 dB -31.25 dB 4:44 05-Prokofiev.Symphony No.1 in D major, Op.25“Classical”:II. Larghetto
DR14 -7.63 dB -28.01 dB 1:37 06-Prokofiev.Symphony No.1 in D major, Op.25“Classical”:III. Gavotta:Non troppo …
DR16 -3.62 dB -25.51 dB 4:23 07-Prokofiev.Symphony No.1 in D major, Op.25“Classical”:IV. Finale:Molto vivace
––––––––––––––––––––––––––––––––––––––––

Number of tracks: 7
Official DR value: DR15

Samplerate: 44100 Hz
Channels: 2
Bits per sample: 16
Bitrate: 559 kbps
Codec: FLAC
================================================================================

––––––––––––––––––––––––––––––––––––––––
Analyzed: Orchestre National de France & Mstislav Rostropovich / Rostropovich Conduct Prokofiev - The Complete Symphonies (Disc 3)
––––––––––––––––––––––––––––––––––––––––

DR Peak RMS Duration Track
––––––––––––––––––––––––––––––––––––––––
DR14 -1.48 dB -20.22 dB 12:54 01-Prokofiev.Symphony No.2 in D minor, Op.40:I. Allegro ben articolato
DR17 -1.20 dB -24.33 dB 24:53 02-Prokofiev.Symphony No.2 in D minor, Op.40:II. Theme and variations
DR15 -1.20 dB -21.18 dB 13:12 03-Prokofiev.Symphony No.3 in C minor, Op.44:I. Moderato
DR15 -12.62 dB -31.79 dB 7:04 04-Prokofiev.Symphony No.3 in C minor, Op.44:II. Andante
DR15 -1.84 dB -24.71 dB 8:18 05-Prokofiev.Symphony No.3 in C minor, Op.44:III. Allegro agitato
DR13 -2.74 dB -20.28 dB 6:32 06-Prokofiev.Symphony No.3 in C minor, Op.44:IV. Andante mosso–Allegro agitato
––––––––––––––––––––––––––––––––––––––––

Number of tracks: 6
Official DR value: DR15

Samplerate: 44100 Hz
Channels: 2
Bits per sample: 16
Bitrate: 607 kbps
Codec: FLAC
================================================================================

––––––––––––––––––––––––––––––––––––––––
Analyzed: Orchestre National de France & Mstislav Rostropovich / Rostropovich Conduct Prokofiev - The Complete Symphonies (Disc 4)
––––––––––––––––––––––––––––––––––––––––

DR Peak RMS Duration Track
––––––––––––––––––––––––––––––––––––––––
DR13 -4.66 dB -23.13 dB 9:42 01-Prokofiev.Symphony No.7 in C sharp minor, Op.131:I. Moderato
DR16 0.00 dB -21.72 dB 7:48 02-Prokofiev.Symphony No.7 in C sharp minor, Op.131:II. Allegretto
DR13 -6.89 dB -26.88 dB 6:31 03-Prokofiev.Symphony No.7 in C sharp minor, Op.131:III. Andante espressivo
DR14 -0.39 dB -19.88 dB 9:34 04-Prokofiev.Symphony No.7 in C sharp minor, Op.131:IV. Vivace
DR15 -0.60 dB -21.03 dB 12:44 05-Prokofiev.Symphony No.5 in B flat major, Op.100:I. Andante
DR15 -2.20 dB -26.09 dB 8:44 06-Prokofiev.Symphony No.5 in B flat major, Op.100:II. Allegro marcato
DR16 -2.02 dB -24.55 dB 11:58 07-Prokofiev.Symphony No.5 in B flat major, Op.100:III. Adagio
DR15 -1.44 dB -23.28 dB 9:23 08-Prokofiev.Symphony No.5 in B flat major, Op.100:IV. Allegro giocoso
––––––––––––––––––––––––––––––––––––––––

Number of tracks: 8
Official DR value: DR15

Samplerate: 44100 Hz
Channels: 2
Bits per sample: 16
Bitrate: 592 kbps
Codec: FLAC
================================================================================



CD Info:

Rostropovich Conducts Prokofiev - The Complete Symphonies (4CD)

Orchestre National de France / Mstislav Rostropovich

Label: Erato, Warner Classics
Catalog#: 2564 69675-5
Format: 4x CD, Album
Country: France
Released: 2008
Genre: Classical

Tracklist:

CD1
1 - Prokofiev.Symphony No.4 in C major, Op.47:I. Andante assai–Allegro eroico 7:35
2 - Prokofiev.Symphony No.4 in C major, Op.47:II. Andante tranquillo 7:14
3 - Prokofiev.Symphony No.4 in C major, Op.47:III. Moderato, quasi allgretto 5:39
4 - Prokofiev.Symphony No.4 in C major, Op.47:IV. Allegro risoluto 8:02
5 - Prokofiev.Symphony No.4 in C major, Op.112:I. Andante–Allegro eroico 15:35
6 - Prokofiev.Symphony No.4 in C major, Op.112:II. Andante tranquillo 9:56
7 - Prokofiev.Symphony No.4 in C major, Op.112:III. Moderato, quasi allegretto 6:51
8 - Prokofiev.Symphony No.4 in C major, Op.112:IV. Allegro risoluto 10:27

CD2
1 - Prokofiev.Symphony No.6 in E flat minor, Op.111:I. Allegro moderato 16:09
2 - Prokofiev.Symphony No.6 in E flat minor, Op.111:II. Largo 16:55
3 - Prokofiev.Symphony No.6 in E flat minor, Op.111:III. Vivace 12:34
4 - Prokofiev.Symphony No.1 in D major, Op.25“Classical”:I. Allegro 4:47
5 - Prokofiev.Symphony No.1 in D major, Op.25“Classical”:II. Larghetto 4:44
6 - Prokofiev.Symphony No.1 in D major, Op.25“Classical”:III. Gavotta:Non troppo 1:37
7 - Prokofiev.Symphony No.1 in D major, Op.25“Classical”:IV. Finale:Molto vivace 4:23

CD3
1 - Prokofiev.Symphony No.2 in D minor, Op.40:I. Allegro ben articolato 12:54
2 - Prokofiev.Symphony No.2 in D minor, Op.40:II. Theme and variations 24:53
3 - Prokofiev.Symphony No.3 in C minor, Op.44:I. Moderato 13:12
4 - Prokofiev.Symphony No.3 in C minor, Op.44:II. Andante 7:04
5 - Prokofiev.Symphony No.3 in C minor, Op.44:III. Allegro agitato 8:18
6 - Prokofiev.Symphony No.3 in C minor, Op.44:IV. Andante mosso–Allegro agitato 6:32

CD4
1 - Prokofiev.Symphony No.7 in C sharp minor, Op.131:I. Moderato 9:42
2 - Prokofiev.Symphony No.7 in C sharp minor, Op.131:II. Allegretto 7:48
3 - Prokofiev.Symphony No.7 in C sharp minor, Op.131:III. Andante espressivo 6:31
4 - Prokofiev.Symphony No.7 in C sharp minor, Op.131:IV. Vivace 9:34
5 - Prokofiev.Symphony No.5 in B flat major, Op.100:I. Andante 12:44
6 - Prokofiev.Symphony No.5 in B flat major, Op.100:II. Allegro marcato 8:44
7 - Prokofiev.Symphony No.5 in B flat major, Op.100:III. Adagio 11:58
8 - Prokofiev.Symphony No.5 in B flat major, Op.100:IV. Allegro giocoso 9:23

Recording location: Grand Auditorium, Radio France, Paris, October 1985, June, September & December 1986, April & November 1987
Introductionary note & translations 2002 Warner Classics
Rostropovich Conducts Prokofiev - The Complete Symphonies (2008)

// classical music \\
// all of my uploads \\