Subcategories

Roy Campbell Pyramid - Communion (1995)

Posted By: wursthans
Roy Campbell Pyramid - Communion (1995)

Roy Campbell Pyramid - Communion (1995)
Genre: Post-Bop | 1CD | EAC-FLAC seperate tracks (CUE+LOG) | CompleteCovers | 407 MB
1994 recording/1995 release | Publisher: SILKHEART Records SHCD 139
RapidShare



Performers:

Roy Campbell (trumpet, flugelhorn, pocket trumpet, cornet & percussion)
William Parker (double bass & percussion)
Reggie Nicholson (drums & percussion)

Tracklist:

1. (00:09:16) Communion
2. (00:09:19) Vigilance
3. (00:12:05) Chant For Don Cherry
4. (00:14:32) Air Pockets
5. (00:15:23) Blues For Albert And Don Ayler
6. (00:14:10) One For Hannibal

Exact Audio Copy V0.99 prebeta 4 from 23. January 2008

EAC extraction logfile from 30. April 2009, 19:58

Roy Campbell Pyramid / Communion

Used drive : PLEXTOR CD-R PREMIUM2 Adapter: 3 ID: 0

Read mode : Secure
Utilize accurate stream : Yes
Defeat audio cache : Yes
Make use of C2 pointers : No

Read offset correction : 30
Overread into Lead-In and Lead-Out : Yes
Fill up missing offset samples with silence : Yes
Delete leading and trailing silent blocks : No
Null samples used in CRC calculations : Yes
Used interface : Native Win32 interface for Win NT & 2000
Gap handling : Appended to previous track

Used output format : User Defined Encoder
Selected bitrate : 128 kBit/s
Quality : High
Add ID3 tag : No
Command line compressor : D:\Programme\EAC099\Flac\flac.exe
Additional command line options : -5 -V -T "ARTIST=%a" -T "TITLE=%t" -T "ALBUM=%g" -T "DATE=%y" -T "TRACKNUMBER=%n" -T "TOTALTRACKS=%x" -T "GENRE=%m" -T "ALBUM ARTIST=%v" -T "ALBUMARTIST=%v" -T "COMMENT=EAC V0.99 prebeta 4, Secure Mode, Test & Copy, Accurat


TOC of the extracted CD

Track | Start | Length | Start sector | End sector
––––––––––––––––––––––––––––-
1 | 0:00.00 | 9:15.55 | 0 | 41679
2 | 9:15.55 | 9:18.42 | 41680 | 83571
3 | 18:34.22 | 12:04.68 | 83572 | 137939
4 | 30:39.15 | 14:32.32 | 137940 | 203371
5 | 45:11.47 | 15:22.38 | 203372 | 272559
6 | 60:34.10 | 14:10.10 | 272560 | 336319


Track 1

Filename E:\Roy Campbell Pyramid - Communion (1995) [FLAC] {SILKHEART SHCD 139}\01 - Communion.wav

Pre-gap length 0:00:02.00

Peak level 93.4 %
Track quality 100.0 %
Test CRC 40152C7C
Copy CRC 40152C7C
Track not present in AccurateRip database
Copy OK

Track 2

Filename E:\Roy Campbell Pyramid - Communion (1995) [FLAC] {SILKHEART SHCD 139}\02 - Vigilance.wav

Peak level 98.7 %
Track quality 100.0 %
Test CRC 0032ECCE
Copy CRC 0032ECCE
Track not present in AccurateRip database
Copy OK

Track 3

Filename E:\Roy Campbell Pyramid - Communion (1995) [FLAC] {SILKHEART SHCD 139}\03 - Chant For Don Cherry.wav

Peak level 88.5 %
Track quality 99.9 %
Test CRC C1C9FCAB
Copy CRC C1C9FCAB
Track not present in AccurateRip database
Copy OK

Track 4

Filename E:\Roy Campbell Pyramid - Communion (1995) [FLAC] {SILKHEART SHCD 139}\04 - Air Pockets.wav

Peak level 97.0 %
Track quality 100.0 %
Test CRC 0719935C
Copy CRC 0719935C
Track not present in AccurateRip database
Copy OK

Track 5

Filename E:\Roy Campbell Pyramid - Communion (1995) [FLAC] {SILKHEART SHCD 139}\05 - Blues For Albert And Don Ayler.wav

Peak level 86.7 %
Track quality 100.0 %
Test CRC CFB5CE3E
Copy CRC CFB5CE3E
Track not present in AccurateRip database
Copy OK

Track 6

Filename E:\Roy Campbell Pyramid - Communion (1995) [FLAC] {SILKHEART SHCD 139}\06 - One For Hannibal.wav

Peak level 97.1 %
Track quality 100.0 %
Test CRC 3F82B352
Copy CRC 3F82B352
Track not present in AccurateRip database
Copy OK


None of the tracks are present in the AccurateRip database

No errors occurred

End of status report


Recording Information

recorded September 13 & 14, 1994
Pilot Recording Studios, New York City, NY
released in 1995

SILKHEART RECORDS
SHCD 139

Review:

This CD features a sparse but very self-sufficient trio. Trumpeter Roy Campbell extends the tradition of Don Cherry and Bobby Bradford while borrowing now and then from Freddie Hubbard. Bassist William Parker and drummer Reggie Nicholson are equal partners on the six lengthy group originals (four by Campbell, two by Parker) and they inspire the leader to come up with consistently inventive playing. On "Chant for Don Cherry" (which has a Spanish rhythm stated by Parker), Campbell certainly brings back Cherry's spirit. Since the pieces are long (the nine-minute "Communion" is the briefest), there are some meandering moments but in general the interplay between the three musicians holds one's interest; Parker's bowed bass on "Air Pockets" really pushes Campbell. (Scott Yanow on allmusic.com)



PW: r@µc@mp

Download

Rapidshare