Subcategories

Royal Stockholm Philharmonic Orchestra - E.S.T. Symphony (2016) {ACT 9034-2}

Posted By: ruskaval
Royal Stockholm Philharmonic Orchestra - E.S.T. Symphony (2016) {ACT 9034-2}

Royal Stockholm Philharmonic Orchestra - E.S.T. Symphony (2016) {ACT 9034-2}
EAC rip (secure mode) | FLAC (tracks)+CUE+LOG -> 466 Mb | MP3 @320 -> 182 Mb
Full Artwork @ 600 dpi (jpg) -> 70 Mb | 5% repair rar
© 2016 ACT Music | ACT 9034-2
Jazz / Classical / Orchestral Jazz / Modern Composition / Contemporary Jazz / Creative Orchestra

Esbjörn Svensson, the Swedish original who consistently turned crossovers between jazz, pop and classical music into lasting art with EST, would have got around to this orchestral venture himself but for his accidental death in 2008. With its shapely themes, subtle pacing and big climaxes, his popular trio’s music was ideal material, eloquently confirmed here by arranger Hans Ek, the Royal Stockholm Philharmonic and four star jazz soloists, including brilliant Finnish pianist Iiro Rantala and Norwegian saxophonist Marius Neset.
Royal Stockholm Philharmonic Orchestra - E.S.T. Symphony (2016) {ACT 9034-2}

Svensson’s own arrangement embellishes the rocking theme of his famous Dodge the Dodo, and the fugal EST favourite When God Created the Coffee Break has inquisitive woodwind lines crossing the Bach-derived bassline before Rantala takes baroque serenity into double-time swing. Marius Neset’s tenor murmurs amid pedal-steel glimmers on Seven Days of Falling, velvet-toned trumpeter Verneri Pohjola is exquisite on Eight-hundred Streets by Feet, and Ek’s swooping flutes and deep strings sway over the characteristic smack and patter of original EST drummer Magnus Öström’s brushwork on Viaticum. It’s all beautifully and devotedly done.
Royal Stockholm Philharmonic Orchestra - E.S.T. Symphony (2016) {ACT 9034-2}


INFO
ACT INFO


Personnel:
Royal Stockholm Philharmonic Orchestra
Hans Ek
/ conductor & arranger
Marius Neset / saxophone
Verneri Pohjola / trumpet
Johan Lindström / pedal steel
Iiro Rantala / piano
Dan Berglund / bass
Magnus Öström / drums

TRACKLISTING:

01. e.s.t. Prelude ( Esbjörn Svensson / Dan Berglund / Magnus Öström) 06:42
02. From Gagarin’s Point of View ( Esbjörn Svensson / Dan Berglund / Magnus Öström) 04:43
03. When God Created the Coffeebreak ( Esbjörn Svensson / Dan Berglund / Magnus Öström) 06:21
04. Seven Days of Falling ( Esbjörn Svensson / Dan Berglund / Magnus Öström) 07:30
05. Wonderland Suite ( Esbjörn Svensson / Dan Berglund / Magnus Öström) 12:53
06. Serenade for the Renegade ( Esbjörn Svensson / Dan Berglund / Magnus Öström) 06:28
07. Dodge the Dodo ( Esbjörn Svensson / Dan Berglund / Magnus Öström) 06:51
08. Eighthundred Streets by Feet ( Esbjörn Svensson / Dan Berglund / Magnus Öström) 05:16
09. Viaticum Suite ( Esbjörn Svensson / Dan Berglund / Magnus Öström) 10:47
10. Behind the Yashmak ( Esbjörn Svensson / Dan Berglund / Magnus Öström) 10:09

Exact Audio Copy V1.0 beta 3 from 29. August 2011

EAC extraction logfile from 22. January 2017, 20:38

Royal Stockholm Philharmonic Orchestra / E.S.T. Symphony

Used drive : ASUS DRW-24F1ST a Adapter: 0 ID: 0

Read mode : Secure
Utilize accurate stream : Yes
Defeat audio cache : Yes
Make use of C2 pointers : No

Read offset correction : 6
Overread into Lead-In and Lead-Out : No
Fill up missing offset samples with silence : Yes
Delete leading and trailing silent blocks : No
Null samples used in CRC calculations : Yes
Used interface : Native Win32 interface for Win NT & 2000
Gap handling : Appended to previous track

Used output format : User Defined Encoder
Selected bitrate : 128 kBit/s
Quality : High
Add ID3 tag : No
Command line compressor : C:\Program Files (x86)\Exact Audio Copy\FLAC\FLAC.EXE
Additional command line options : -8 -V -T "ARTIST=%artist%" -T "TITLE=%title%" -T "ALBUM=%albumtitle%" -T "DATE=%year%" -T "TRACKNUMBER=%tracknr%" -T "TOTALTRACKS=%numtracks%" -T "GENRE=%genre%" -T "ALBUMARTIST=%albumartist%" -T "ALBUM ARTIST=%albumartist%" -T "COMMENT=EAC Secure Mode, Test & Copy, AccurateRip, FLAC -8" %source%


TOC of the extracted CD

Track | Start | Length | Start sector | End sector
––––––––––––––––––––––––––––-
1 | 0:00.00 | 6:42.71 | 0 | 30220
2 | 6:42.71 | 4:43.61 | 30221 | 51506
3 | 11:26.57 | 6:21.28 | 51507 | 80109
4 | 17:48.10 | 7:30.01 | 80110 | 113860
5 | 25:18.11 | 12:53.69 | 113861 | 171904
6 | 38:12.05 | 6:28.00 | 171905 | 201004
7 | 44:40.05 | 6:51.54 | 201005 | 231883
8 | 51:31.59 | 5:16.04 | 231884 | 255587
9 | 56:47.63 | 10:47.17 | 255588 | 304129
10 | 67:35.05 | 10:09.59 | 304130 | 349863


Track 1

Filename K:\EAC\01 - E.S.T. Prelude.wav

Pre-gap length 0:00:02.00

Peak level 92.7 %
Extraction speed 5.3 X
Track quality 100.0 %
Test CRC FC3A4CAE
Copy CRC FC3A4CAE
Accurately ripped (confidence 6) [04E9B110] (AR v2)
Copy OK

Track 2

Filename K:\EAC\02 - From Gagarin's Point Of View.wav

Peak level 90.9 %
Extraction speed 5.7 X
Track quality 100.0 %
Test CRC 3804A4C3
Copy CRC 3804A4C3
Accurately ripped (confidence 6) [DDBB3BE1] (AR v2)
Copy OK

Track 3

Filename K:\EAC\03 - When God Created The Coffeebreak.wav

Peak level 94.9 %
Extraction speed 6.4 X
Track quality 100.0 %
Test CRC BDE4A009
Copy CRC BDE4A009
Accurately ripped (confidence 6) [3FA2906E] (AR v2)
Copy OK

Track 4

Filename K:\EAC\04 - Seven Days Of Falling.wav

Peak level 92.1 %
Extraction speed 7.0 X
Track quality 100.0 %
Test CRC CBF67934
Copy CRC CBF67934
Accurately ripped (confidence 6) [71751287] (AR v2)
Copy OK

Track 5

Filename K:\EAC\05 - Wonderland Suite.wav

Peak level 92.6 %
Extraction speed 8.0 X
Track quality 100.0 %
Test CRC 0484F0FF
Copy CRC 0484F0FF
Accurately ripped (confidence 6) [DF9B30CC] (AR v2)
Copy OK

Track 6

Filename K:\EAC\06 - Serenade For The Renegade.wav

Peak level 91.7 %
Extraction speed 8.2 X
Track quality 100.0 %
Test CRC 20B36532
Copy CRC 20B36532
Accurately ripped (confidence 6) [31451B6E] (AR v2)
Copy OK

Track 7

Filename K:\EAC\07 - Dodge The Dodo.wav

Peak level 92.0 %
Extraction speed 8.7 X
Track quality 100.0 %
Test CRC D09B77B7
Copy CRC D09B77B7
Accurately ripped (confidence 6) [CF7A9E5D] (AR v2)
Copy OK

Track 8

Filename K:\EAC\08 - Eighthundred Streets By Feet.wav

Peak level 92.0 %
Extraction speed 7.9 X
Track quality 99.9 %
Test CRC 25646622
Copy CRC 25646622
Accurately ripped (confidence 6) [E269C12A] (AR v2)
Copy OK

Track 9

Filename K:\EAC\09 - Viaticum Suite.wav

Peak level 93.2 %
Extraction speed 9.8 X
Track quality 100.0 %
Test CRC 120FCEFA
Copy CRC 120FCEFA
Accurately ripped (confidence 6) [9EB19D2E] (AR v2)
Copy OK

Track 10

Filename K:\EAC\10 - Behind The Yashmak.wav

Peak level 97.9 %
Extraction speed 10.4 X
Track quality 100.0 %
Test CRC B84BC52E
Copy CRC B84BC52E
Accurately ripped (confidence 6) [1308F177] (AR v2)
Copy OK


All tracks accurately ripped

No errors occurred

End of status report

==== Log checksum 628C5A5A7F0411B1AA5C027B84F7BB1F255657F339C81D3EE4AE58318D6A2928 ====


Royal Stockholm Philharmonic Orchestra - E.S.T. Symphony (2016) {ACT 9034-2}

Royal Stockholm Philharmonic Orchestra - E.S.T. Symphony (2016) {ACT 9034-2}



===