Subcategories

The Rubinstein Collection Volume 66 - Dvorak & Schumann (w/ Guarneri Quartet)

Posted By: wursthans
The Rubinstein Collection Volume 66 - Dvorak & Schumann (w/ Guarneri Quartet)

The Rubinstein Collection Volume 66 - Dvorak & Schumann (w/ Guarneri Quartet)
Genre: Romantic Chamber Music | 1 CD | EAC & FLAC (CUE+LOG) | Complete Covers & PDF | 319 MB
1966/1970 recordings & 1999 release | Publisher: RCA Red Seal 09026 63066-2
RapidShare


Works/Tracks

1. (00:08:58) Antonín Dvorák - Piano Quartet No. 2 in E-flat, Op. 87 - I. Allegro con fuoco - Poco sostenuto e tranquillo
2. (00:10:34) Antonín Dvorák - Piano Quartet No. 2 in E-flat, Op. 87 - II. Lento
3. (00:07:26) Antonín Dvorák - Piano Quartet No. 2 in E-flat, Op. 87 - III. Scherzo: Allegro moderato, grazioso
4. (00:07:17) Antonín Dvorák - Piano Quartet No. 2 in E-flat, Op. 87 - IV. Finale: Allegro ma non troppo
5. (00:09:43) Robert Schumann - Piano Quintet in E-flat, Op. 44 - I. Allegro brillante
6. (00:09:42) Robert Schumann - Piano Quintet in E-flat, Op. 44 - II. In modo d'una marcia
7. (00:04:56) Robert Schumann - Piano Quintet in E-flat, Op. 44 - III. Scherzo
8. (00:07:52) Robert Schumann - Piano Quintet in E-flat, Op. 44 - IV. Allegro ma non troppo


Performers

Arthur Rubinstein (piano),
Guarneri Quartet

Exact Audio Copy V0.99 prebeta 4 from 23. January 2008

EAC extraction logfile from 4. May 2009, 23:52

Arthur Rubinstein & Guarneri Quartet / The Rubinstein Collection Volume 66 - Dvorak & Schumann

Used drive : PLEXTOR CD-R PREMIUM2 Adapter: 3 ID: 0

Read mode : Secure
Utilize accurate stream : Yes
Defeat audio cache : Yes
Make use of C2 pointers : No

Read offset correction : 30
Overread into Lead-In and Lead-Out : Yes
Fill up missing offset samples with silence : Yes
Delete leading and trailing silent blocks : No
Null samples used in CRC calculations : Yes
Used interface : Native Win32 interface for Win NT & 2000
Gap handling : Appended to previous track

Used output format : User Defined Encoder
Selected bitrate : 128 kBit/s
Quality : High
Add ID3 tag : No
Command line compressor : D:\Programme\EAC099\Flac\flac.exe
Additional command line options : -5 -V -T "ARTIST=%a" -T "TITLE=%t" -T "ALBUM=%g" -T "DATE=%y" -T "TRACKNUMBER=%n" -T "TOTALTRACKS=%x" -T "GENRE=%m" -T "ALBUM ARTIST=%v" -T "ALBUMARTIST=%v" -T "COMMENT=EAC V0.99 prebeta 4, Secure Mode, Test & Copy, Accurat


TOC of the extracted CD

Track | Start | Length | Start sector | End sector
––––––––––––––––––––––––––––-
1 | 0:00.00 | 8:57.50 | 0 | 40324
2 | 8:57.50 | 10:34.00 | 40325 | 87874
3 | 19:31.50 | 7:26.00 | 87875 | 121324
4 | 26:57.50 | 7:17.00 | 121325 | 154099
5 | 34:14.50 | 9:43.00 | 154100 | 197824
6 | 43:57.50 | 9:42.00 | 197825 | 241474
7 | 53:39.50 | 4:56.00 | 241475 | 263674
8 | 58:35.50 | 7:52.25 | 263675 | 299099


Track 1

Filename E:\The Rubinstein Collection Volume 66 - Dvorak & Schumann (1999) [FLAC]\01 - [Op. 87] I. Allegro con fuoco - Poco sostenuto e tranquillo.wav

Pre-gap length 0:00:02.00

Peak level 97.7 %
Track quality 100.0 %
Test CRC B1B4C897
Copy CRC B1B4C897
Accurately ripped (confidence 3) [64B873CF]
Copy OK

Track 2

Filename E:\The Rubinstein Collection Volume 66 - Dvorak & Schumann (1999) [FLAC]\02 - [Op. 87] II. Lento.wav

Pre-gap length 0:00:04.50

Peak level 85.3 %
Track quality 100.0 %
Test CRC 414C6271
Copy CRC 414C6271
Accurately ripped (confidence 3) [FC3007C4]
Copy OK

Track 3

Filename E:\The Rubinstein Collection Volume 66 - Dvorak & Schumann (1999) [FLAC]\03 - [Op. 87] III. Scherzo. Allegro moderato, grazioso.wav

Pre-gap length 0:00:08.50

Peak level 90.7 %
Track quality 100.0 %
Test CRC 540A6A6B
Copy CRC 540A6A6B
Accurately ripped (confidence 3) [3A00A791]
Copy OK

Track 4

Filename E:\The Rubinstein Collection Volume 66 - Dvorak & Schumann (1999) [FLAC]\04 - [Op. 87] IV. Finale. Allegro ma non troppo.wav

Pre-gap length 0:00:03.50

Peak level 88.6 %
Track quality 99.9 %
Test CRC C819E629
Copy CRC C819E629
Accurately ripped (confidence 3) [52507CBD]
Copy OK

Track 5

Filename E:\The Rubinstein Collection Volume 66 - Dvorak & Schumann (1999) [FLAC]\05 - [Op. 44] I. Allegro brillante.wav

Pre-gap length 0:00:10.50

Peak level 86.7 %
Track quality 100.0 %
Test CRC 9268C387
Copy CRC 9268C387
Accurately ripped (confidence 3) [FA647A84]
Copy OK

Track 6

Filename E:\The Rubinstein Collection Volume 66 - Dvorak & Schumann (1999) [FLAC]\06 - [Op. 44] II. In modo d'una marcia.wav

Pre-gap length 0:00:04.50

Peak level 78.8 %
Track quality 100.0 %
Test CRC CA9B37D1
Copy CRC CA9B37D1
Accurately ripped (confidence 3) [CC2A0E9E]
Copy OK

Track 7

Filename E:\The Rubinstein Collection Volume 66 - Dvorak & Schumann (1999) [FLAC]\07 - [Op. 44] III. Scherzo.wav

Pre-gap length 0:00:06.50

Peak level 87.5 %
Track quality 100.0 %
Test CRC 706560C6
Copy CRC 706560C6
Accurately ripped (confidence 3) [8202044E]
Copy OK

Track 8

Filename E:\The Rubinstein Collection Volume 66 - Dvorak & Schumann (1999) [FLAC]\08 - [Op. 44] IV. Allegro ma non troppo.wav

Pre-gap length 0:00:04.50

Peak level 99.1 %
Track quality 99.9 %
Test CRC 5BBC8990
Copy CRC 5BBC8990
Accurately ripped (confidence 3) [AF0E77E3]
Copy OK


All tracks accurately ripped

No errors occurred

End of status report


Recording Information

recorded 1966 & 1970
New York City
released 1999

RCA Red Seal
09026 63066-2


Reviews

While I wouldn't go as far as one of the reviewers below and say that the performance of Schumann's Piano Quintet on this album is the best out there, it certainly is one fantastic recording. This also holds true for the Dvorak, even though I can relate to the criticism in the other review below. Both recordings took place during a career change of Rubinstein, when the maestro focused less on solo or concerto recordings, but more on chamber music performances. A lot of these were done with the Guarneri Quartet, which back then was still at the beginning of its career. Rubinstein performs as an equal and doesn't try to push things or be in the spotlight. It feels as if a real quintet is performing, not a quartet with a piano player. hanswurst


PASSWORD:

r@@b3366

Download

RapidShare