Subcategories

Peter Ruzicka - Hamburger Streichquartett - Chamber Music (1994)

Posted By: luckburz
Peter Ruzicka - Hamburger Streichquartett - Chamber Music (1994)

Peter Ruzicka - Chamber Music: Introspecione / Ausgeweidet Die Zeit… / Preludes / Stille
Hamburger Streichquartett / Carol Tainton, piano / Matthias Lorenz, violoncello
EAC+LOG+CUE | FLAC: 170 MB | Full Artwork | 5% Recovery Info
Label/Cat#: MDG # 625 0549-2 | Country/Year: Germany 1994
Genre: Classical | Style: Modern

MD5 [X] CUE [X] LOG [X] INFO TEXT [X] ARTWORK [X]

selfrip [X] not my rip []

Peter Ruzicka - Hamburger Streichquartett - Chamber Music (1994)


Exact Audio Copy V1.0 beta 3 from 29. August 2011

EAC extraction logfile from 2. October 2012, 11:14

Hamburger Streichquartett / Ruzicka: Chamber Music

Used drive : PIONEER BD-RW BDR-206 Adapter: 0 ID: 2

Read mode : Secure
Utilize accurate stream : Yes
Defeat audio cache : Yes
Make use of C2 pointers : No

Read offset correction : 667
Overread into Lead-In and Lead-Out : No
Fill up missing offset samples with silence : Yes
Delete leading and trailing silent blocks : No
Null samples used in CRC calculations : Yes
Used interface : Native Win32 interface for Win NT & 2000

Used output format : User Defined Encoder
Selected bitrate : 1024 kBit/s
Quality : High
Add ID3 tag : Yes
Command line compressor : C:\Program Files\FLAC\flac.exe
Additional command line options : -5 -T "Artist=%artist%" -T "Title=%title%" -T "Album=%albumtitle%" -T "Date=%year%" -T "Tracknumber=%tracknr%" -T "Genre=%genre%" %source% -o %dest%


TOC of the extracted CD

Track | Start | Length | Start sector | End sector
––––––––––––––––––––––––––––-
1 | 0:00.32 | 11:13.00 | 32 | 50506
2 | 11:13.32 | 2:20.40 | 50507 | 61046
3 | 13:33.72 | 2:33.33 | 61047 | 72554
4 | 16:07.30 | 3:27.02 | 72555 | 88081
5 | 19:34.32 | 12:35.00 | 88082 | 144706
6 | 32:09.32 | 2:06.40 | 144707 | 154196
7 | 34:15.72 | 0:48.45 | 154197 | 157841
8 | 35:04.42 | 3:22.58 | 157842 | 173049
9 | 38:27.25 | 1:11.05 | 173050 | 178379
10 | 39:38.30 | 0:51.05 | 178380 | 182209
11 | 40:29.35 | 2:18.72 | 182210 | 192631
12 | 42:48.32 | 10:00.33 | 192632 | 237664


Range status and errors

Selected range

Filename F:\=== VINYL RIPS ===\=== EAC===\X FRESH RIP\Ruzicka- Hamburger Streichquartett - Chamber Music.wav

Peak level 95.0 %
Extraction speed 7.2 X
Range quality 100.0 %
Test CRC 11EF7D78
Copy CRC 11EF7D78
Copy OK

No errors occurred


AccurateRip summary

Track 1 accurately ripped (confidence 2) [ED8AFDB5] (AR v1)
Track 2 accurately ripped (confidence 2) [311CFB04] (AR v1)
Track 3 accurately ripped (confidence 2) [438782DC] (AR v1)
Track 4 accurately ripped (confidence 2) [C0AC1865] (AR v1)
Track 5 accurately ripped (confidence 2) [646CDC58] (AR v1)
Track 6 accurately ripped (confidence 2) [BA7ADFB1] (AR v1)
Track 7 accurately ripped (confidence 2) [09FAC58F] (AR v1)
Track 8 accurately ripped (confidence 2) [F5282E31] (AR v1)
Track 9 accurately ripped (confidence 2) [B1B430EE] (AR v1)
Track 10 accurately ripped (confidence 2) [DCB76B83] (AR v1)
Track 11 accurately ripped (confidence 2) [81DFCC4D] (AR v1)
Track 12 accurately ripped (confidence 2) [7F24C568] (AR v1)

All tracks accurately ripped

End of status report

–– CUETools DB Plugin V2.1.3

[CTDB TOCID: bvNtaOWDJixIzxphr.czpUoO07E-] disk not present in database, Submit result: discs with pregaps not supported in this protocol version


==== Log checksum D5671C1935BDCE425CD1F7E4660E3C095BFA7097BB9BC1FD5D164CE36BCF7D87 ====

foobar2000 1.1.14a / Dynamic Range Meter 1.1.1
log date: 2012-11-06 22:16:30

––––––––––––––––––––––––––––––––––––––––
Analyzed: Hamburger Streichquartett / Ruzicka: Chamber Music
––––––––––––––––––––––––––––––––––––––––

DR Peak RMS Duration Track
––––––––––––––––––––––––––––––––––––––––
DR15 -2.42 dB -25.24 dB 11:13 01-Introspezione - Documentation for String Quartet
DR18 -1.40 dB -29.27 dB 2:21 02-Ausgeweidet die Zeit … - Three Nocturnes for Piano - 1
DR16 -0.44 dB -23.19 dB 2:33 03-Ausgeweidet die Zeit … - Three Nocturnes for Piano - 2
DR19 -0.92 dB -29.13 dB 3:27 04-Ausgeweidet die Zeit … - Three Nocturnes for Piano - 3
DR17 -2.20 dB -26.56 dB 12:35 05-Sonata per Violoncello
DR13 -2.26 dB -22.35 dB 2:07 06-Preludes - Six Pieces for Piano 1
DR11 -3.44 dB -17.40 dB 0:49 07-Preludes - Six Pieces for Piano 2
DR18 -0.82 dB -28.74 dB 3:23 08-Preludes - Six Pieces for Piano 3
DR14 -5.70 dB -26.94 dB 1:11 09-Preludes - Six Pieces for Piano 4
DR10 -3.97 dB -20.30 dB 0:51 10-Preludes - Six Pieces for Piano 5
DR17 -2.88 dB -34.33 dB 2:19 11-Preludes - Six Pieces for Piano 6
DR25 -6.30 dB -39.01 dB 10:00 12-Stille - Four Epilogs for Violoncello
––––––––––––––––––––––––––––––––––––––––

Number of tracks: 12
Official DR value: DR16

Samplerate: 44100 Hz
Channels: 2
Bits per sample: 16
Bitrate: 451 kbps
Codec: FLAC
================================================================================



CD Info:

Peter Ruzicka (*1948) - Chambermusic

Introspecione / Ausgeweidet Die Zeit… / Preludes / Stille

Hamburger Streichquartett / Carol Tainton, piano / Matthias Lorenz, violoncello

Label: MDG
Series: Scene
Catalog#: 625 0549-2
Format: CD, Album
Country: Germany
Released: 1994
Genre: Classical
Style: Contemporary

Tracklist:

1 - Introspezione - Documentation for String Quartet 11:13
2 - Ausgeweidet die Zeit … - Three Nocturnes for Piano - 1 2:21
3 - Ausgeweidet die Zeit … - Three Nocturnes for Piano - 2 2:33
4 - Ausgeweidet die Zeit … - Three Nocturnes for Piano - 3 3:27
5 - Sonata per Violoncello 12:35
6 - Preludes - Six Pieces for Piano 1 2:07
7 - Preludes - Six Pieces for Piano 2 0:49
8 - Preludes - Six Pieces for Piano 3 3:23
9 - Preludes - Six Pieces for Piano 4 1:11
10 - Preludes - Six Pieces for Piano 5 0:51
11 - Preludes - Six Pieces for Piano 6 2:19
12 - Stille - Four Epilogs for Violoncello 10:00

Recording:

Norddeutscher Rundfunk - Introspezione: 11.03.1971
Norddeutscher Rundfunk - Ausgeweidet Die Zeit: 25.11.1987
Norddeutscher Rundfunk - Preludes: 25.11.1987

Hessischer Rundfunk - Sonata per Violoncello: 05.03.1992
Hessischer Rundfunk - Stille: 05.03.1992

Peter Ruzicka - Hamburger Streichquartett - Chamber Music (1994)


Peter Ruzicka (born July 3, 1948) is a German composer and conductor of classical music.

Peter Ruzicka was born in Düsseldorf on July 3, 1948. He received his early musical training (piano, oboe and composition) at the Hamburg Conservatory. He studied composition with Hans Werner Henze and Hans Otte. He studied law and musicology in Munich, Hamburg and Berlin (doctoral thesis: Berlin, 1977). The list of his compositions includes numerous orchestral and chamber music works as well as the opera „Celan“, which was premiered in Dresden in 2001. His new opera “Hölderlin” had its premiere at the Berlin State Opera in 2008.

Peter Ruzicka was appointed professor at the Hochschule für Musik und Theater Hamburg in 1990. The composer is member of the Bavarian Academy of Fine Arts in Munich and of the Free Academy of Arts in Hamburg.

Peter Ruzicka was artistic director of the Berlin Radio Symphony Orchestra from 1979 to 1987 and director of the Hamburg State Opera and the Philharmonic Orchestra of Hamburg from 1988 to 1997. Moreover, he was Artistic Advisor of the Royal Concertgebouw Orchestra in Amsterdam from 1997 to 1999. In 1999 he was named President of the Bavarian Theatre Academy. From 2001 to 2006, Ruzicka took over the Artistic Directorship of the Salzburg Festival. At present he is artistic director of the Munich Biennale which he took over from Hans Werner Henze in 1996.

As a conductor Peter Ruzicka has directed the German Symphony Orchestra in Berlin – recording CD productions of works by Mahler, Pettersson and Schreker – the Royal Concertgebouw Orchestra, the Sächsische Staatskapelle Dresden, the Gewandhausorchester Leipzig, the Symphony Orchestra of the Bavarian Radio, the NDR Symphony Orchestra Hamburg – recording a cycle of 12 orchestral works by Hans Werner Henze -, the Bamberg Symphony Orchestra, the Radio Symphony Orchestra Stuttgart, the SWR Symphony Orchestra Baden-Baden and Freiburg, the WDR Symphony Orchestra Cologne, the Radio Symphony Orchestra Frankfurt, the MDR Symphony Orchestra Leipzig, the Munich Philharmonic, the Orchestra of the German Opera Berlin, the Vienna Symphony Orchestra, the Danish National Symphony Orchestra, the Czech Philharmonic Orchestra, the Yomiuri Nippon Symphony Orchestra Tokyo, and the China Philharmonic Orchestra amongst others. wikipedia


Thomas Tomkins (1572-1656) - Complete Keyboard Music Vol. 2
Thomas Tomkins (1572-1656) - Complete Keyboard Music Vol. 1
Waldemar Döling - Variationen für Cembalo / Variations for harpsichord
Robert Schumann - Rudolf Innig - Complete Organ Works
Various Composers - Sächsische Orgelmusik / Saxon Organ Music
Julius Reubke - Martin Sander, Claudius Tanski - Sonata on the 94th Psalm in C minor & Piano Sonata in B minor
John Cage - Steffen Schleiermacher - Complete Piano Music Vol. 1 - The Prepared Piano
Brandt & Böhme - Wolfgang Bauer - Music For Trumpet [CD Rip]
Brandt & Böhme - Wolfgang Bauer - Music For Trumpet [SACD Rip]
Dietrich Buxtehude - Harald Vogel - Complete Organ Works
Johann Melchior Molter - Orchestral & Chamber Music
Georg Philipp Telemann - Musica Alta Ripa - Concertos and Chamber Music
Schumann - Trio Parnassus / Hariolf Schlichtig - Piano Quartet [CD Rip]
Schumann - Trio Parnassus / Hariolf Schlichtig - Piano Quartet [SACD Rip]
Christoph Graupner - Orchestral Works Vol. 3
Christoph Graupner - Orchestral Works Vol. 2
Christoph Graupner - Orchestral Works Vol. 1
Johann Sebastian Bach - Musica Alta Ripa - Solo Concertos Vol. 1
Albert Lortzing - Neue Detmolder Liedertafel - An den Frühling: Ernste und heitere Festgesänge für Männerstimmen
Musicalische Compagney - Lamenti & Concerti: Liebe und Klage in der Musik von Heinrich Schutz (1585-1672)
Franz Liszt - Tanski / Beethoven Orchester Bonn - Tasso, Totentanz, Piano Music [CD Rip]
Franz Liszt - Tanski / Beethoven Orchester Bonn - Tasso, Totentanz, Piano Music [SACD Rip]
Ottorino Respighi - Pini di Roma / Trittico / Tre Corali [CD Rip]
Ottorino Respighi - Pini di Roma / Trittico / Tre Corali [SACD Rip]
Berliner Vokalensemble ''Carl Maria von Weber'' - Bella Ciao
Berliner Vokalensemble ''Carl Maria von Weber'' - Kein schöner Land
George Frideric Handel - Belshazzar [HWV 61] (3xCD)
George Frideric Handel - Saul [HWV 53] (3xCD)
Johannes Brahms - Hardy Rittner - Early Piano Works Vol.1 [CD Rip]
Johannes Brahms - Hardy Rittner - Early Piano Works Vol.2 [CD Rip]
Johannes Brahms - Hardy Rittner - Early Piano Works Vol.2 [SACD Rip]
Johannes Brahms / Robert Schumann - Mozart Piano Quartet - Piano Quartets
Wolfgang Amadeus Mozart / Leipziger Streichquartett - The Ten Celebrated String Quartets
Norbert Schultze - Drops …unter der Laterne

Peter Ruzicka - Hamburger Streichquartett - Chamber Music (1994)

// classical music \\
// all of my uploads \\
________________

Download:

Filepost FLAC
Filepost Artwork
________________