Ryan Adams - Heartbreaker (2016) {2CD with DVD5 NSTC Deluxe Edition}

Posted By: ruskaval
Ryan Adams - Heartbreaker (2016) {2CD with DVD5 NSTC Deluxe Edition}

Ryan Adams - Heartbreaker (2016) {2CD with DVD5 NSTC Deluxe Edition}
EAC rip (secure mode) | FLAC (tracks)+CUE+LOG -> 713 Mb | MP3 @320 -> 303 Mb
DVD5 -> 1.71 Gb | All Regions | NTSC 4:3 | LPCM, 2 ch | ~ 48 min | ISO Image
Full Artwork @ 300 dpi (png) -> 112 Mb | 5% repair rar
© 2016 Pax Americana | PAX-AM 056
Rock / Country / Alternative Country-Rock / Indie / Americana / Country Rock

As Whiskeytown finally ground to a halt in the wake of an astonishing number of personal changes following Faithless Street (coupled with record company problems that kept their final album, Pneumonia, from reaching stores until two years after it was recorded), Ryan Adams ducked into a Nashville studio for two weeks of sessions with Gillian Welch and David Rawlings. While arch traditionalists Welch and Rawlings would hardly seem like a likely match for alt-country's bad boy, the collaboration brought out the best in Adams; Heartbreaker is loose, open, and heartfelt in a way Whiskeytown's admittedly fine albums never were, and makes as strong a case for Adams' gifts as anything his band ever released.
Ryan Adams - Heartbreaker (2016) {2CD with DVD5 NSTC Deluxe Edition}

With the exception of the Stones-flavored "Shakedown on 9th Street" and the swaggering "To Be Young (Is to Be Sad, Is to Be High)," Heartbreaker leaves rock & roll on the shelf in favor of a sound that blends low-key folk-rock with a rootsy, bluegrass-accented undertow, and while the album's production and arrangements are subtle and spare, they make up in emotional impact whatever they lack in volume. As a songwriter, Adams concerns himself with the ups and downs of romance rather than the post-teenage angst that dominated Whiskeytown's work, and "My Winding Wheel" and "Damn, Sam (I Love a Woman That Rains)" are warmly optimistic in a way he's rarely been before, while "Come Pick Me Up" shows he's still eloquently in touch with heartbreak.

Ryan Adams - Heartbreaker (2016) {2CD with DVD5 NSTC Deluxe Edition}


Adams has always been a strong vocalist, but his duet with Emmylou Harris on "Oh My Sweet Carolina" may well be his finest hour as a singer, and the stripped-back sound of these sessions allows him to explore the nooks and crannies of his voice, and the results are pleasing. Whiskeytown fans who loved the "Replacements-go-twang" crunch of "Drank Like a River" and "Yesterday's News" might have a hard time warming up to Heartbreaker, but the strength of the material and the performances suggest Adams is finally gaining some much-needed maturity, and his music is all the better for it. [A Deluxe three-CD/DVD set comprising 51 tracks was released in 2016 and included demos, alternate takes, live tracks, and outtakes.]
Ryan Adams - Heartbreaker (2016) {2CD with DVD5 NSTC Deluxe Edition}


Tracks:
CD1 Original album

01 - (Argument with David Rawlings concerning Morrissey)
02 - To Be Young (Is To Be Sad, Is To Be High)
03 - My Winding Wheel
04 - AMY
05 - Oh My Sweet Carolina
06 - Bartering Lines
07 - Call Me On Your Way Back Home
08 - Damn, Sam (I Love A Woman That Rains)
09 - Come Pick Me Up
10 - To Be The One
11 - Why Do They Leave
12 - Shakedown On 9th Street
13 - Don't Ask For The Water
14 - In My Time Of Need
15 - Sweet Lil Gal (23rd,1st)

Ryan Adams - Heartbreaker (2016) {2CD with DVD5 NSTC Deluxe Edition}


CD2 Bonus tracks:
Heartbreaker Sessions

01 - Hairdresser On Fire Jam
02 - To Be Young (Is To Be Sad, Is To Be High)
03 - Petal In A Rainstorm
04 - War Horse
05 - Oh My Sweet Carolina
06 - Come Pick Me Up
07 - Punk Jam
08 - When The Rope Gets Tight (alternate)
09 - When The Rope Gets Tight
10 - Goodbye Honey

Pre-album Demos:
11 - In My Time Of Need
12 - Bartering Lines (demo)
13 - Come Pick Me Up (demo)
14 - To Be The One (demo)
15 - Don't Ask For The Water (demo)
16 - In My Time Of Need (demo)
17 - Goodbye Honey (demo)
18 - Petal In A Rainstorm (demo)
19 - War Horse (demo)
20 - Locked Away (demo)

Ryan Adams - Heartbreaker (2016) {2CD with DVD5 NSTC Deluxe Edition}


Live DVD:
1. Oh My Sweet Carolina
2. Gimme Sunshine
3. To Be Young (is to be sad, is to be high)
4. AMY
5. Call Me On Your Way Back Home
6. Just Like A Whore
7. Wonderwall
8. Damn, Sam (I love a woman that rains)
9. Sweet Lil Gal (23rd/1st)
10. Come Pick Me Up
11. My Winding Wheel

Ryan Adams - Heartbreaker (2016) {2CD with DVD5 NSTC Deluxe Edition}


Exact Audio Copy V1.0 beta 6 from 9. April 2015

EAC extraction logfile from 7. August 2016, 14:17

Ryan Adams / Heartbreaker

Used drive : Optiarc DVD RW AD-5240S Adapter: 1 ID: 1

Read mode : Secure
Utilize accurate stream : Yes
Defeat audio cache : Yes
Make use of C2 pointers : No

Read offset correction : 48
Overread into Lead-In and Lead-Out : No
Fill up missing offset samples with silence : Yes
Delete leading and trailing silent blocks : No
Null samples used in CRC calculations : Yes
Used interface : Native Win32 interface for Win NT & 2000
Gap handling : Appended to previous track

Used output format : User Defined Encoder
Selected bitrate : 128 kBit/s
Quality : High
Add ID3 tag : No
Command line compressor : C:\Program Files (x86)\Exact Audio Copy\Flac\flac.exe
Additional command line options : -8 -V -T "ARTIST=%artist%" -T "TITLE=%title%" -T "ALBUM=%albumtitle%" -T "DATE=%year%" -T "TRACKNUMBER=%tracknr%" -T "TOTALTRACKS=%numtracks%" -T "GENRE=%genre%" -T "ALBUMARTIST=%albumartist%" -T "ALBUM ARTIST=%albumartist%" -T "COMMENT=EAC Secure Mode, Test & Copy, AccurateRip, FLAC -8" %source%


TOC of the extracted CD

Track | Start | Length | Start sector | End sector
––––––––––––––––––––––––––––-
1 | 0:00.00 | 0:36.26 | 0 | 2725
2 | 0:36.26 | 3:04.50 | 2726 | 16575
3 | 3:41.01 | 3:12.55 | 16576 | 31030
4 | 6:53.56 | 3:46.03 | 31031 | 47983
5 | 10:39.59 | 4:56.54 | 47984 | 70237
6 | 15:36.38 | 3:59.19 | 70238 | 88181
7 | 19:35.57 | 3:09.31 | 88182 | 102387
8 | 22:45.13 | 2:08.18 | 102388 | 112005
9 | 24:53.31 | 5:18.08 | 112006 | 135863
10 | 30:11.39 | 3:00.70 | 135864 | 149433
11 | 33:12.34 | 3:38.27 | 149434 | 165810
12 | 36:50.61 | 2:52.62 | 165811 | 178772
13 | 39:43.48 | 2:55.68 | 178773 | 191965
14 | 42:39.41 | 5:38.70 | 191966 | 217385
15 | 48:18.36 | 3:38.58 | 217386 | 233793


Track 1

Filename D:\Downloads\uTorrent\Ryan Adams - Heartbreaker Deluxe Edition (2016) [FLAC]\CD1\01 - (Argument with David Rawlings concerning Morrissey).wav

Pre-gap length 0:00:02.00

Peak level 65.3 %
Extraction speed 1.2 X
Track quality 100.0 %
Test CRC 95A479CA
Copy CRC 95A479CA
Accurately ripped (confidence 5) [231A2249] (AR v2)
Copy OK

Track 2

Filename D:\Downloads\uTorrent\Ryan Adams - Heartbreaker Deluxe Edition (2016) [FLAC]\CD1\02 - To Be Young (Is To Be Sad, Is To Be High).wav

Peak level 97.9 %
Extraction speed 2.3 X
Track quality 100.0 %
Test CRC 2D2A3227
Copy CRC 2D2A3227
Accurately ripped (confidence 5) [1F079339] (AR v2)
Copy OK

Track 3

Filename D:\Downloads\uTorrent\Ryan Adams - Heartbreaker Deluxe Edition (2016) [FLAC]\CD1\03 - My Winding Wheel.wav

Peak level 96.6 %
Extraction speed 2.5 X
Track quality 100.0 %
Test CRC AB5B0078
Copy CRC AB5B0078
Accurately ripped (confidence 5) [911D876E] (AR v2)
Copy OK

Track 4

Filename D:\Downloads\uTorrent\Ryan Adams - Heartbreaker Deluxe Edition (2016) [FLAC]\CD1\04 - AMY.wav

Peak level 96.1 %
Extraction speed 2.7 X
Track quality 100.0 %
Test CRC 804512A0
Copy CRC 804512A0
Accurately ripped (confidence 5) [B83D8E95] (AR v2)
Copy OK

Track 5

Filename D:\Downloads\uTorrent\Ryan Adams - Heartbreaker Deluxe Edition (2016) [FLAC]\CD1\05 - Oh My Sweet Carolina.wav

Peak level 98.0 %
Extraction speed 3.0 X
Track quality 100.0 %
Test CRC 6223750B
Copy CRC 6223750B
Accurately ripped (confidence 5) [4728BC56] (AR v2)
Copy OK

Track 6

Filename D:\Downloads\uTorrent\Ryan Adams - Heartbreaker Deluxe Edition (2016) [FLAC]\CD1\06 - Bartering Lines.wav

Peak level 97.2 %
Extraction speed 3.2 X
Track quality 100.0 %
Test CRC 1F9A5001
Copy CRC 1F9A5001
Accurately ripped (confidence 5) [327636B4] (AR v2)
Copy OK

Track 7

Filename D:\Downloads\uTorrent\Ryan Adams - Heartbreaker Deluxe Edition (2016) [FLAC]\CD1\07 - Call Me On Your Way Back Home.wav

Peak level 97.1 %
Extraction speed 3.2 X
Track quality 100.0 %
Test CRC 4B436825
Copy CRC 4B436825
Accurately ripped (confidence 5) [2CA463A8] (AR v2)
Copy OK

Track 8

Filename D:\Downloads\uTorrent\Ryan Adams - Heartbreaker Deluxe Edition (2016) [FLAC]\CD1\08 - Damn, Sam (I Love A Woman That Rains).wav

Peak level 96.8 %
Extraction speed 3.1 X
Track quality 100.0 %
Test CRC D30EFBE6
Copy CRC D30EFBE6
Accurately ripped (confidence 5) [5739397B] (AR v2)
Copy OK

Track 9

Filename D:\Downloads\uTorrent\Ryan Adams - Heartbreaker Deluxe Edition (2016) [FLAC]\CD1\09 - Come Pick Me Up.wav

Peak level 98.8 %
Extraction speed 3.8 X
Track quality 100.0 %
Test CRC 36A85C5B
Copy CRC 36A85C5B
Accurately ripped (confidence 5) [F5D30584] (AR v2)
Copy OK

Track 10

Filename D:\Downloads\uTorrent\Ryan Adams - Heartbreaker Deluxe Edition (2016) [FLAC]\CD1\10 - To Be The One.wav

Peak level 88.2 %
Extraction speed 3.1 X
Track quality 99.9 %
Test CRC 9FEB7046
Copy CRC 9FEB7046
Accurately ripped (confidence 5) [420225FF] (AR v2)
Copy OK

Track 11

Filename D:\Downloads\uTorrent\Ryan Adams - Heartbreaker Deluxe Edition (2016) [FLAC]\CD1\11 - Why Do They Leave.wav

Peak level 98.3 %
Extraction speed 3.8 X
Track quality 100.0 %
Test CRC B426C8B5
Copy CRC B426C8B5
Accurately ripped (confidence 5) [6C46540B] (AR v2)
Copy OK

Track 12

Filename D:\Downloads\uTorrent\Ryan Adams - Heartbreaker Deluxe Edition (2016) [FLAC]\CD1\12 - Shakedown On 9th Street.wav

Peak level 98.8 %
Extraction speed 3.9 X
Track quality 100.0 %
Test CRC 31CDF3A4
Copy CRC 31CDF3A4
Accurately ripped (confidence 5) [938FB057] (AR v2)
Copy OK

Track 13

Filename D:\Downloads\uTorrent\Ryan Adams - Heartbreaker Deluxe Edition (2016) [FLAC]\CD1\13 - Don't Ask For The Water.wav

Peak level 86.5 %
Extraction speed 3.9 X
Track quality 100.0 %
Test CRC 758E3725
Copy CRC 758E3725
Accurately ripped (confidence 5) [5BE0B422] (AR v2)
Copy OK

Track 14

Filename D:\Downloads\uTorrent\Ryan Adams - Heartbreaker Deluxe Edition (2016) [FLAC]\CD1\14 - In My Time Of Need.wav

Peak level 82.3 %
Extraction speed 4.4 X
Track quality 100.0 %
Test CRC AFF949AC
Copy CRC AFF949AC
Accurately ripped (confidence 5) [8A52D689] (AR v2)
Copy OK

Track 15

Filename D:\Downloads\uTorrent\Ryan Adams - Heartbreaker Deluxe Edition (2016) [FLAC]\CD1\15 - Sweet Lil Gal (23rd,1st).wav

Peak level 78.0 %
Extraction speed 3.9 X
Track quality 99.9 %
Test CRC AB0EFA16
Copy CRC AB0EFA16
Accurately ripped (confidence 5) [37441D06] (AR v2)
Copy OK


All tracks accurately ripped

No errors occurred

End of status report

–– CUETools DB Plugin V2.1.6

[CTDB TOCID: laUgIdy9GKpCGeVHnXTM95aDs9E-] found
Submit result: laUgIdy9GKpCGeVHnXTM95aDs9E- has been confirmed
Track | CTDB Status
1 | (15/32) Accurately ripped
2 | (15/32) Accurately ripped
3 | (15/32) Accurately ripped
4 | (15/32) Accurately ripped
5 | (15/32) Accurately ripped
6 | (15/32) Accurately ripped
7 | (15/32) Accurately ripped
8 | (15/32) Accurately ripped
9 | (15/32) Accurately ripped
10 | (15/32) Accurately ripped
11 | (15/32) Accurately ripped
12 | (15/32) Accurately ripped
13 | (15/32) Accurately ripped
14 | (15/32) Accurately ripped
15 | (15/32) Accurately ripped


==== Log checksum B8D3D39E70E05BF4B8A6AA367F0A4F105CF969A0F9839E31F73DBA8192DD9C02 ====

Exact Audio Copy V1.0 beta 6 from 9. April 2015

EAC extraction logfile from 7. August 2016, 15:49

Ryan Adams / Heartbreaker Sessions

Used drive : Optiarc DVD RW AD-5240S Adapter: 1 ID: 1

Read mode : Secure
Utilize accurate stream : Yes
Defeat audio cache : Yes
Make use of C2 pointers : No

Read offset correction : 48
Overread into Lead-In and Lead-Out : No
Fill up missing offset samples with silence : Yes
Delete leading and trailing silent blocks : No
Null samples used in CRC calculations : Yes
Used interface : Native Win32 interface for Win NT & 2000
Gap handling : Appended to previous track

Used output format : User Defined Encoder
Selected bitrate : 128 kBit/s
Quality : High
Add ID3 tag : No
Command line compressor : C:\Program Files (x86)\Exact Audio Copy\Flac\flac.exe
Additional command line options : -8 -V -T "ARTIST=%artist%" -T "TITLE=%title%" -T "ALBUM=%albumtitle%" -T "DATE=%year%" -T "TRACKNUMBER=%tracknr%" -T "TOTALTRACKS=%numtracks%" -T "GENRE=%genre%" -T "ALBUMARTIST=%albumartist%" -T "ALBUM ARTIST=%albumartist%" -T "COMMENT=EAC Secure Mode, Test & Copy, AccurateRip, FLAC -8" %source%


TOC of the extracted CD

Track | Start | Length | Start sector | End sector
––––––––––––––––––––––––––––-
1 | 0:00.00 | 1:35.01 | 0 | 7125
2 | 1:35.01 | 3:28.39 | 7126 | 22764
3 | 5:03.40 | 4:56.53 | 22765 | 45017
4 | 10:00.18 | 2:16.15 | 45018 | 55232
5 | 12:16.33 | 5:31.70 | 55233 | 80127
6 | 17:48.28 | 5:03.18 | 80128 | 102870
7 | 22:51.46 | 0:49.31 | 102871 | 106576
8 | 23:41.02 | 1:43.72 | 106577 | 114373
9 | 25:24.74 | 5:33.50 | 114374 | 139398
10 | 30:58.49 | 3:29.03 | 139399 | 155076
11 | 34:27.52 | 5:09.03 | 155077 | 178254
12 | 39:36.55 | 3:21.62 | 178255 | 193391
13 | 42:58.42 | 4:52.73 | 193392 | 215364
14 | 47:51.40 | 3:31.33 | 215365 | 231222
15 | 51:22.73 | 5:43.17 | 231223 | 256964
16 | 57:06.15 | 4:50.48 | 256965 | 278762
17 | 61:56.63 | 4:44.42 | 278763 | 300104
18 | 66:41.30 | 4:27.74 | 300105 | 320203
19 | 71:09.29 | 2:29.17 | 320204 | 331395
20 | 73:38.46 | 3:24.06 | 331396 | 346701


Track 1

Filename D:\Downloads\uTorrent\Ryan Adams - Heartbreaker Deluxe Edition (2016) [FLAC] (with DVD5 NSTC)\CD2\01 - Hairdresser On Fire Jam.wav

Pre-gap length 0:00:02.00

Peak level 95.4 %
Extraction speed 1.9 X
Track quality 100.0 %
Test CRC C545A7AE
Copy CRC C545A7AE
Accurately ripped (confidence 7) [AA8D17F1] (AR v2)
Copy OK

Track 2

Filename D:\Downloads\uTorrent\Ryan Adams - Heartbreaker Deluxe Edition (2016) [FLAC] (with DVD5 NSTC)\CD2\02 - To Be Young (Is To Be Sad, Is To Be High).wav

Peak level 98.7 %
Extraction speed 2.5 X
Track quality 100.0 %
Test CRC BA3288CD
Copy CRC BA3288CD
Accurately ripped (confidence 7) [EF81A445] (AR v2)
Copy OK

Track 3

Filename D:\Downloads\uTorrent\Ryan Adams - Heartbreaker Deluxe Edition (2016) [FLAC] (with DVD5 NSTC)\CD2\03 - Petal In A Rainstorm.wav

Peak level 97.9 %
Extraction speed 2.9 X
Track quality 100.0 %
Test CRC 4CDC13F2
Copy CRC 4CDC13F2
Accurately ripped (confidence 7) [0859EF80] (AR v2)
Copy OK

Track 4

Filename D:\Downloads\uTorrent\Ryan Adams - Heartbreaker Deluxe Edition (2016) [FLAC] (with DVD5 NSTC)\CD2\04 - War Horse.wav

Peak level 60.9 %
Extraction speed 2.7 X
Track quality 100.0 %
Test CRC 3EBAC2B9
Copy CRC 3EBAC2B9
Accurately ripped (confidence 7) [08318547] (AR v2)
Copy OK

Track 5

Filename D:\Downloads\uTorrent\Ryan Adams - Heartbreaker Deluxe Edition (2016) [FLAC] (with DVD5 NSTC)\CD2\05 - Oh My Sweet Carolina.wav

Peak level 96.0 %
Extraction speed 3.3 X
Track quality 100.0 %
Test CRC 1A826BD8
Copy CRC 1A826BD8
Accurately ripped (confidence 7) [6C522826] (AR v2)
Copy OK

Track 6

Filename D:\Downloads\uTorrent\Ryan Adams - Heartbreaker Deluxe Edition (2016) [FLAC] (with DVD5 NSTC)\CD2\06 - Come Pick Me Up.wav

Peak level 96.2 %
Extraction speed 3.5 X
Track quality 100.0 %
Test CRC 5ABCBA93
Copy CRC 5ABCBA93
Accurately ripped (confidence 7) [010A3314] (AR v2)
Copy OK

Track 7

Filename D:\Downloads\uTorrent\Ryan Adams - Heartbreaker Deluxe Edition (2016) [FLAC] (with DVD5 NSTC)\CD2\07 - Punk Jam.wav

Peak level 97.1 %
Extraction speed 2.2 X
Track quality 100.0 %
Test CRC 160AAA6D
Copy CRC 160AAA6D
Accurately ripped (confidence 7) [A21E82AD] (AR v2)
Copy OK

Track 8

Filename D:\Downloads\uTorrent\Ryan Adams - Heartbreaker Deluxe Edition (2016) [FLAC] (with DVD5 NSTC)\CD2\08 - When The Rope Gets Tight (alternate).wav

Peak level 96.1 %
Extraction speed 3.0 X
Track quality 100.0 %
Test CRC 0AF807D6
Copy CRC 0AF807D6
Accurately ripped (confidence 7) [DCEC2A21] (AR v2)
Copy OK

Track 9

Filename D:\Downloads\uTorrent\Ryan Adams - Heartbreaker Deluxe Edition (2016) [FLAC] (with DVD5 NSTC)\CD2\09 - When The Rope Gets Tight.wav

Peak level 95.7 %
Extraction speed 3.5 X
Track quality 99.9 %
Test CRC B93A3B22
Copy CRC B93A3B22
Accurately ripped (confidence 7) [8D1004C9] (AR v2)
Copy OK

Track 10

Filename D:\Downloads\uTorrent\Ryan Adams - Heartbreaker Deluxe Edition (2016) [FLAC] (with DVD5 NSTC)\CD2\10 - Goodbye Honey.wav

Peak level 95.8 %
Extraction speed 3.8 X
Track quality 100.0 %
Test CRC 109DE69A
Copy CRC 109DE69A
Accurately ripped (confidence 7) [2CC7E3F0] (AR v2)
Copy OK

Track 11

Filename D:\Downloads\uTorrent\Ryan Adams - Heartbreaker Deluxe Edition (2016) [FLAC] (with DVD5 NSTC)\CD2\11 - In My Time Of Need.wav

Peak level 74.4 %
Extraction speed 4.2 X
Track quality 100.0 %
Test CRC CAC353C1
Copy CRC CAC353C1
Accurately ripped (confidence 7) [111CC465] (AR v2)
Copy OK

Track 12

Filename D:\Downloads\uTorrent\Ryan Adams - Heartbreaker Deluxe Edition (2016) [FLAC] (with DVD5 NSTC)\CD2\12 - Bartering Lines (demo).wav

Peak level 96.8 %
Extraction speed 3.6 X
Track quality 99.9 %
Test CRC 3E5FC311
Copy CRC 3E5FC311
Accurately ripped (confidence 7) [8C3F9AAA] (AR v2)
Copy OK

Track 13

Filename D:\Downloads\uTorrent\Ryan Adams - Heartbreaker Deluxe Edition (2016) [FLAC] (with DVD5 NSTC)\CD2\13 - Come Pick Me Up (demo).wav

Peak level 97.7 %
Extraction speed 4.5 X
Track quality 100.0 %
Test CRC 5D9BC1D3
Copy CRC 5D9BC1D3
Accurately ripped (confidence 7) [B4084D6F] (AR v2)
Copy OK

Track 14

Filename D:\Downloads\uTorrent\Ryan Adams - Heartbreaker Deluxe Edition (2016) [FLAC] (with DVD5 NSTC)\CD2\14 - To Be The One (demo).wav

Peak level 98.5 %
Extraction speed 4.4 X
Track quality 100.0 %
Test CRC 75B93C6E
Copy CRC 75B93C6E
Accurately ripped (confidence 7) [57631762] (AR v2)
Copy OK

Track 15

Filename D:\Downloads\uTorrent\Ryan Adams - Heartbreaker Deluxe Edition (2016) [FLAC] (with DVD5 NSTC)\CD2\15 - Don't Ask For The Water (demo).wav

Peak level 96.7 %
Extraction speed 4.8 X
Track quality 100.0 %
Test CRC E79DE744
Copy CRC E79DE744
Accurately ripped (confidence 7) [E4077301] (AR v2)
Copy OK

Track 16

Filename D:\Downloads\uTorrent\Ryan Adams - Heartbreaker Deluxe Edition (2016) [FLAC] (with DVD5 NSTC)\CD2\16 - In My Time Of Need (demo).wav

Peak level 94.6 %
Extraction speed 4.9 X
Track quality 100.0 %
Test CRC 8E6DA619
Copy CRC 8E6DA619
Accurately ripped (confidence 7) [35D25152] (AR v2)
Copy OK

Track 17

Filename D:\Downloads\uTorrent\Ryan Adams - Heartbreaker Deluxe Edition (2016) [FLAC] (with DVD5 NSTC)\CD2\17 - Goodbye Honey (demo).wav

Peak level 97.4 %
Extraction speed 5.1 X
Track quality 100.0 %
Test CRC 94FD57F5
Copy CRC 94FD57F5
Accurately ripped (confidence 7) [EAE3F49F] (AR v2)
Copy OK

Track 18

Filename D:\Downloads\uTorrent\Ryan Adams - Heartbreaker Deluxe Edition (2016) [FLAC] (with DVD5 NSTC)\CD2\18 - Petal In A Rainstorm (demo).wav

Peak level 96.3 %
Extraction speed 5.2 X
Track quality 100.0 %
Test CRC D9B3121B
Copy CRC D9B3121B
Accurately ripped (confidence 7) [094DF598] (AR v2)
Copy OK

Track 19

Filename D:\Downloads\uTorrent\Ryan Adams - Heartbreaker Deluxe Edition (2016) [FLAC] (with DVD5 NSTC)\CD2\19 - War Horse (demo).wav

Peak level 97.5 %
Extraction speed 4.8 X
Track quality 100.0 %
Test CRC A3658D3B
Copy CRC A3658D3B
Accurately ripped (confidence 7) [37EE3F44] (AR v2)
Copy OK

Track 20

Filename D:\Downloads\uTorrent\Ryan Adams - Heartbreaker Deluxe Edition (2016) [FLAC] (with DVD5 NSTC)\CD2\20 - Locked Away (demo).wav

Peak level 95.7 %
Extraction speed 5.1 X
Track quality 100.0 %
Test CRC 1E155B00
Copy CRC 1E155B00
Accurately ripped (confidence 7) [A0AED4E8] (AR v2)
Copy OK


All tracks accurately ripped

No errors occurred

End of status report

–– CUETools DB Plugin V2.1.6

[CTDB TOCID: BDsf4KhEV5kTE4234W3O6HHBkc8-] found
Submit result: BDsf4KhEV5kTE4234W3O6HHBkc8- has been confirmed
Track | CTDB Status
1 | (15/15) Accurately ripped
2 | (15/15) Accurately ripped
3 | (15/15) Accurately ripped
4 | (15/15) Accurately ripped
5 | (15/15) Accurately ripped
6 | (15/15) Accurately ripped
7 | (15/15) Accurately ripped
8 | (15/15) Accurately ripped
9 | (15/15) Accurately ripped
10 | (15/15) Accurately ripped
11 | (15/15) Accurately ripped
12 | (15/15) Accurately ripped
13 | (15/15) Accurately ripped
14 | (15/15) Accurately ripped
15 | (15/15) Accurately ripped
16 | (15/15) Accurately ripped
17 | (15/15) Accurately ripped
18 | (15/15) Accurately ripped
19 | (15/15) Accurately ripped
20 | (14/15) Accurately ripped


==== Log checksum F801E89555CD2ED49ECD8B112D28005E8244A696EE8D51779ADF2FBFF3BC8432 ====

I 14:31:29 DVD Decrypter Version 3.5.4.0 started!
I 14:31:29 Professional (6.2, Build 9200)
I 14:31:29 Initialising SPTI…
I 14:31:29 Searching for SCSI / ATAPI devices…
I 14:31:29 Found 1 DVD-ROM and 1 DVD±RW!
W 14:31:31 Possible Structure Protection Found!
W 14:31:31 1 area has been marked as 'suspect'.
W 14:31:31 Dummy sectors will be inserted where necessary.
I 14:32:25 Operation Started!
I 14:32:25 Source Device: [1:0:0] Optiarc DVD RW AD-5240S 1.03 (F:) (ATA)
I 14:32:25 Source Media Type: DVD-ROM
I 14:32:25 Source Media Region Code: 1, 2, 3, 4, 5, 6, 7, 8
I 14:32:25 Source Media Copyright Protection System Type: CSS/CPPM
I 14:32:25 Source Media Implementation Identifier: Apple Computer, Inc.
I 14:32:25 Destination File: D:\Downloads\uTorrent\Ryan Adams - Heartbreaker Deluxe Edition (2016) [FLAC] (with DVD5 NSTC)\DVD\RA_LAML102000.ISO
I 14:32:26 File Splitting: None
I 14:32:26 Hardware Read Error Retries: 20
I 14:32:26 Remove Structure Protection: No
I 14:32:26 Bad Sector Removal Method: Normal
I 14:32:26 Detect Mastering Errors: No
I 14:32:26 Remove Macrovision Protection: Yes
I 14:32:29 Extracting Sectors… (LBA: 0 - 1343119)
I 14:32:29 Found IFO File: VIDEO_TS.IFO - (LBA: 295 - 301)
I 14:32:30 Found VOB File: VIDEO_TS.VOB - (LBA: 302 - 358) - KEY: N/A
I 14:32:30 Found BUP File: VIDEO_TS.BUP - (LBA: 359 - 365)
I 14:32:30 Found IFO File: VTS_01_0.IFO - (LBA: 366 - 388)
I 14:32:30 Found VOB File: VTS_01_0.VOB - (LBA: 389 - 41831) - KEY: CF FD 95 BE 01
I 14:32:42 Found VOB File: VTS_01_1.VOB - (LBA: 41832 - 566033) - KEY: CF FD 95 BE 01
I 14:34:15 Found VOB File: VTS_01_2.VOB - (LBA: 566034 - 1090235) - KEY: CF FD 95 BE 01
I 14:35:25 Found VOB File: VTS_01_3.VOB - (LBA: 1090236 - 1343088) - KEY: CF FD 95 BE 01
I 14:35:55 Found BUP File: VTS_01_0.BUP - (LBA: 1343089 - 1343111)
I 14:35:55 Operation Successfully Completed! - Duration: 00:03:29
I 14:35:55 Average Read Rate: 12,852 KB/s (9.3x) - Maximum Read Rate: 17,901 KB/s (12.9x)


Ryan Adams - Heartbreaker (2016) {2CD with DVD5 NSTC Deluxe Edition}

Ryan Adams - Heartbreaker (2016) {2CD with DVD5 NSTC Deluxe Edition}

Ryan Adams - Heartbreaker (2016) {2CD with DVD5 NSTC Deluxe Edition}

Ryan Adams - Heartbreaker (2016) {2CD with DVD5 NSTC Deluxe Edition}

Ryan Adams - Heartbreaker (2016) {2CD with DVD5 NSTC Deluxe Edition}


All thanks goes to the original releaser!