Subcategories

San Fermin - San Fermin (2013) {Downtown Records DWT70365}

Posted By: ruskaval
San Fermin - San Fermin (2013) {Downtown Records DWT70365}

San Fermin - San Fermin (2013) {Downtown Records DWT70365}
EAC rip (secure mode) | FLAC (tracks)+CUE+LOG -> 335 Mb | MP3 @320 -> 130 Mb
Full Artwork @ 300 dpi (jpg) -> 23 Mb | 5% repair rar
© 2013 Downtown Records / [PIAS] | DWT70365
Indie Rock

After composition student Ellis Ludwig-Leone graduated from Yale in 2011, instead of giving in to post-college feelings of aimlessness and "what next?" confusion, he set about to work on the epic master statement that he dubbed San Fermin. The self-titled debut is a massive collection of densely layered orchestral pop stuck between the technical tendencies of classically trained musicians and the summery electro-pop curiosity of chamber-leaning indie acts like Dirty Projectors, Grizzly Bear, and Sufjan Stevens. Ludwig-Leone acts in a "man behind the curtain" fashion for San Fermin, conducting more than a dozen musicians and vocalists through his songs and only contributing piano and keyboards himself.

The vocals are handled by Allen Tate and the duo of Jess Wolfe and Holly Laessig, also known as Lucius. Tate's dry baritone floats stoically over tracks like "Methuselah" and the bounding, eerie rocker "Torero," while Lucius' shimmery high-register unison vocals add brightness to the album's more pop-centric moments. Of those catchy standouts, "Sonsick" is the strongest, with a huge beat serving backup to huge melodic keyboards and a staggeringly triumphant chorus, boisterous with interlocking horn and vocal melody lines that recall the beautiful, melancholic marching feel of Beirut at their best. As the album winds into its final third, it takes a turn away from pop structures and into more droning compositions and drifty chamber pop experiments and interludes. Somewhere between Grizzly Bear's Yellow House era sounds and a tamer version of Scott Walker's later solo albums, San Fermin creates a layered and colorful sound that hides its subtle surprises in any of the dozens of secret compartments Ludwig-Leone built into his songs. With 17 incredibly complex songs clocking in at almost an hour, the San Fermin listening experience is a commitment, but one that rewards greatly. Getting to the end of the album, with all its obtuse hooks and unexpected turns, is surprisingly similar to the satisfaction of finishing a classic novel. While that feeling is probably part of what gave birth to the critics calling certain sects of indie rock "literary," San Fermin does something different with it, finding a fearless balance between the instant gratification of a good hook and the sometimes difficult results of an intentful vision.
San Fermin - San Fermin (2013) {Downtown Records DWT70365}


tracklist:
01 - Renaissance!
02 - Crueler Kind
03 - Lament For V.G.
04 - Casanova
05 - Sonsick
06 - Methuselah
07 - At Sea
08 - Torero
09 - At Night, True Love
10 - The Count
11 - Bar
12 - In Waiting
13 - True Love, Asleep
14 - Oh, Darling
15 - In The Morning
16 - Daedalus (What We Have)
17 - Altogether Changed

Exact Audio Copy V1.0 beta 3 from 29. August 2011

EAC extraction logfile from 3. August 2014, 23:48

San Fermin / San Fermin

Used drive : SlimtypeDVD A DS8A4S Adapter: 1 ID: 0

Read mode : Secure
Utilize accurate stream : Yes
Defeat audio cache : Yes
Make use of C2 pointers : No

Read offset correction : 6
Overread into Lead-In and Lead-Out : No
Fill up missing offset samples with silence : Yes
Delete leading and trailing silent blocks : No
Null samples used in CRC calculations : Yes
Used interface : Installed external ASPI interface
Gap handling : Appended to previous track

Used output format : User Defined Encoder
Selected bitrate : 128 kBit/s
Quality : High
Add ID3 tag : No
Command line compressor : C:\Program Files (x86)\FLAC\flac.exe
Additional command line options : -8 -V -T "ARTIST=%artist%" -T "TITLE=%title%" -T "ALBUM=%albumtitle%" -T "DATE=%year%" -T "TRACKNUMBER=%tracknr%" -T "TOTALTRACKS=%numtracks%" -T "GENRE=%genre%" -T "ALBUMARTIST=%albumartist%" -T "ALBUM ARTIST=%albumartist%" -T "COMMENT=EAC Secure Mode, Test & Copy, AccurateRip, FLAC -8" %source%


TOC of the extracted CD

Track | Start | Length | Start sector | End sector
––––––––––––––––––––––––––––-
1 | 0:00.00 | 4:01.38 | 0 | 18112
2 | 4:01.38 | 4:00.02 | 18113 | 36114
3 | 8:01.40 | 1:38.37 | 36115 | 43501
4 | 9:40.02 | 3:51.50 | 43502 | 60876
5 | 13:31.52 | 4:13.32 | 60877 | 79883
6 | 17:45.09 | 4:53.54 | 79884 | 101912
7 | 22:38.63 | 1:15.53 | 101913 | 107590
8 | 23:54.41 | 3:42.15 | 107591 | 124255
9 | 27:36.56 | 2:11.68 | 124256 | 134148
10 | 29:48.49 | 3:53.58 | 134149 | 151681
11 | 33:42.32 | 4:30.08 | 151682 | 171939
12 | 38:12.40 | 3:15.27 | 171940 | 186591
13 | 41:27.67 | 2:13.70 | 186592 | 196636
14 | 43:41.62 | 2:48.03 | 196637 | 209239
15 | 46:29.65 | 0:25.15 | 209240 | 211129
16 | 46:55.05 | 5:44.64 | 211130 | 236993
17 | 52:39.69 | 2:43.69 | 236994 | 249287


Track 1

Filename C:\Users\Berg\Desktop\San Fermin - San Fermin (2013) [FLAC]\01 - Renaissance!.wav

Pre-gap length 0:00:02.00

Peak level 98.9 %
Extraction speed 2.6 X
Track quality 100.0 %
Test CRC A63DBFE5
Copy CRC A63DBFE5
Accurately ripped (confidence 17) [DB1738D6] (AR v2)
Copy OK

Track 2

Filename C:\Users\Berg\Desktop\San Fermin - San Fermin (2013) [FLAC]\02 - Crueler Kind.wav

Pre-gap length 0:00:00.15

Peak level 98.9 %
Extraction speed 2.4 X
Track quality 99.9 %
Test CRC 92E95F16
Copy CRC 92E95F16
Accurately ripped (confidence 17) [B24F7346] (AR v2)
Copy OK

Track 3

Filename C:\Users\Berg\Desktop\San Fermin - San Fermin (2013) [FLAC]\03 - Lament For V.G..wav

Pre-gap length 0:00:01.03

Peak level 100.0 %
Extraction speed 2.6 X
Track quality 100.0 %
Test CRC 9696CECC
Copy CRC 9696CECC
Accurately ripped (confidence 18) [D10C002B] (AR v2)
Copy OK

Track 4

Filename C:\Users\Berg\Desktop\San Fermin - San Fermin (2013) [FLAC]\04 - Casanova.wav

Peak level 98.9 %
Extraction speed 3.3 X
Track quality 100.0 %
Test CRC 26945F3B
Copy CRC 26945F3B
Accurately ripped (confidence 18) [BA1E562D] (AR v2)
Copy OK

Track 5

Filename C:\Users\Berg\Desktop\San Fermin - San Fermin (2013) [FLAC]\05 - Sonsick.wav

Pre-gap length 0:00:01.01

Peak level 98.8 %
Extraction speed 3.5 X
Track quality 100.0 %
Test CRC C723F5A6
Copy CRC C723F5A6
Accurately ripped (confidence 18) [85CB4403] (AR v2)
Copy OK

Track 6

Filename C:\Users\Berg\Desktop\San Fermin - San Fermin (2013) [FLAC]\06 - Methuselah.wav

Pre-gap length 0:00:01.34

Peak level 98.9 %
Extraction speed 3.8 X
Track quality 100.0 %
Test CRC 9E65E5D8
Copy CRC 9E65E5D8
Accurately ripped (confidence 18) [FA97D97F] (AR v2)
Copy OK

Track 7

Filename C:\Users\Berg\Desktop\San Fermin - San Fermin (2013) [FLAC]\07 - At Sea.wav

Peak level 98.8 %
Extraction speed 1.8 X
Track quality 99.8 %
Test CRC FB0BC1DB
Copy CRC FB0BC1DB
Accurately ripped (confidence 18) [54599486] (AR v2)
Copy OK

Track 8

Filename C:\Users\Berg\Desktop\San Fermin - San Fermin (2013) [FLAC]\08 - Torero.wav

Pre-gap length 0:00:01.60

Peak level 98.9 %
Extraction speed 4.0 X
Track quality 100.0 %
Test CRC CCFE3CF9
Copy CRC CCFE3CF9
Accurately ripped (confidence 18) [81307E3F] (AR v2)
Copy OK

Track 9

Filename C:\Users\Berg\Desktop\San Fermin - San Fermin (2013) [FLAC]\09 - At Night, True Love.wav

Peak level 98.8 %
Extraction speed 3.7 X
Track quality 100.0 %
Test CRC DD57F7A2
Copy CRC DD57F7A2
Accurately ripped (confidence 18) [EA8FFBC7] (AR v2)
Copy OK

Track 10

Filename C:\Users\Berg\Desktop\San Fermin - San Fermin (2013) [FLAC]\10 - The Count.wav

Peak level 98.9 %
Extraction speed 4.3 X
Track quality 100.0 %
Test CRC 44D2396D
Copy CRC 44D2396D
Accurately ripped (confidence 18) [86E1B6DA] (AR v2)
Copy OK

Track 11

Filename C:\Users\Berg\Desktop\San Fermin - San Fermin (2013) [FLAC]\11 - Bar.wav

Peak level 98.9 %
Extraction speed 4.5 X
Track quality 100.0 %
Test CRC 9236152A
Copy CRC 9236152A
Accurately ripped (confidence 18) [87BBD508] (AR v2)
Copy OK

Track 12

Filename C:\Users\Berg\Desktop\San Fermin - San Fermin (2013) [FLAC]\12 - In Waiting.wav

Peak level 98.8 %
Extraction speed 4.5 X
Track quality 100.0 %
Test CRC 698577CE
Copy CRC 698577CE
Accurately ripped (confidence 18) [0FD46721] (AR v2)
Copy OK

Track 13

Filename C:\Users\Berg\Desktop\San Fermin - San Fermin (2013) [FLAC]\13 - True Love, Asleep.wav

Pre-gap length 0:00:00.27

Peak level 98.8 %
Extraction speed 4.2 X
Track quality 100.0 %
Test CRC 57A09096
Copy CRC 57A09096
Accurately ripped (confidence 18) [C7E786FC] (AR v2)
Copy OK

Track 14

Filename C:\Users\Berg\Desktop\San Fermin - San Fermin (2013) [FLAC]\14 - Oh, Darling.wav

Peak level 98.8 %
Extraction speed 4.6 X
Track quality 100.0 %
Test CRC 392BB810
Copy CRC 392BB810
Accurately ripped (confidence 18) [47D442F0] (AR v2)
Copy OK

Track 15

Filename C:\Users\Berg\Desktop\San Fermin - San Fermin (2013) [FLAC]\15 - In The Morning.wav

Peak level 44.5 %
Extraction speed 1.2 X
Track quality 99.5 %
Test CRC 2B24FFCF
Copy CRC 2B24FFCF
Accurately ripped (confidence 18) [09D77431] (AR v2)
Copy OK

Track 16

Filename C:\Users\Berg\Desktop\San Fermin - San Fermin (2013) [FLAC]\16 - Daedalus (What We Have).wav

Peak level 100.0 %
Extraction speed 5.3 X
Track quality 100.0 %
Test CRC 10EC1B86
Copy CRC 10EC1B86
Accurately ripped (confidence 18) [2065D1DD] (AR v2)
Copy OK

Track 17

Filename C:\Users\Berg\Desktop\San Fermin - San Fermin (2013) [FLAC]\17 - Altogether Changed.wav

Pre-gap length 0:00:00.39

Peak level 98.8 %
Extraction speed 4.8 X
Track quality 100.0 %
Test CRC 868A2223
Copy CRC 868A2223
Accurately ripped (confidence 18) [C04F7085] (AR v2)
Copy OK


All tracks accurately ripped

No errors occurred

End of status report

==== Log checksum 9DF923DFAFAE74AED915EC75C5B348BAFCDAE425EE985FF53551FAC474485656 ====


San Fermin - San Fermin (2013) {Downtown Records DWT70365}

San Fermin - San Fermin (2013) {Downtown Records DWT70365}



===