Subcategories

Saor Patrol - Two Headed Dog (2012) {Madman Records MAMA031}

Posted By: ruskaval
Saor Patrol - Two Headed Dog (2012) {Madman Records MAMA031}

Saor Patrol - Two Headed Dog (2012) {Madman Records MAMA031}
XLD rip (secure mode) | FLAC (tracks)+CUE+LOG -> 348 Mb | MP3 @320 -> 107 Mb
Full Artwork @ 300 dpi (jpg) -> 27 Mb | 5% repair rar
© 2012 Madman Records / Saor Patrol | MAMA031
International / Celtic / Contemporary Celtic / Instrumental / Modern Folk / Drums / Hard Rock

With three drummers, electric guitar, and Highland pipes, Saor Patrol can make a big noise – and here they let out all the stops and do just that. With the Gibson on full distort, they manage to come across as distinctly fearsome, although over the course of a full album it ends up as repetitive, with only a few real variations like "Badholly" (using the hambone rhythm) seeming strikingly different. It's probably far more effective in concert, where the sound and spectacle would be overwhelming, but in the cleaner sonic space of the studio it can't quite work its magic so well. Two Headed Dog - Duncarron Electric: Scottish pipes & drums untamed - with the addition of powerful electric guitar and bass arrangements. This is the hard rock version of Saor Patrol’s album “Duncarron” (not all songs are the same).

Saor Patrol - Two Headed Dog (2012) {Madman Records MAMA031}

Saor Patrol - Two Headed Dog (2012) {Madman Records MAMA031}


tracklist:
01 - Three wee jigs
02 - Men o'Galloway
03 - O'Rourke
04 - Toomtabard
05 - Duncarron
06 - Chamalihitchin
07 - Laird o'Glencairn
08 - Badholly
09 - The Irish
10 - Crammin' At The Brig

X Lossless Decoder version 20161007 (149.3)

XLD extraction logfile from 2017-09-22 20:58:56 +0100

Saor Patrol / Two Headed Dog

Used drive : HL-DT-ST DVDRW GS23N (revision SB11)
Media type : Pressed CD

Ripper mode : XLD Secure Ripper
Disable audio cache : OK for the drive with a cache less than 1375KiB
Make use of C2 pointers : NO
Read offset correction : 667
Max retry count : 100
Gap status : Analyzed, Appended (except HTOA)

TOC of the extracted CD
Track | Start | Length | Start sector | End sector
––––––––––––––––––––––––––––-
1 | 00:00:00 | 05:35:38 | 0 | 25162
2 | 05:35:38 | 04:16:52 | 25163 | 44414
3 | 09:52:15 | 03:20:69 | 44415 | 59483
4 | 13:13:09 | 06:36:54 | 59484 | 89237
5 | 19:49:63 | 03:32:68 | 89238 | 105205
6 | 23:22:56 | 03:57:73 | 105206 | 123053
7 | 27:20:54 | 05:09:56 | 123054 | 146284
8 | 32:30:35 | 04:06:60 | 146285 | 164794
9 | 36:37:20 | 03:54:71 | 164795 | 182415
10 | 40:32:16 | 04:41:27 | 182416 | 203517

AccurateRip Summary (DiscID: 00117316-008a7f7d-8b0a990a)
Track 01 : OK (v2, confidence 2/2)
Track 02 : OK (v2, confidence 3/3)
Track 03 : OK (v2, confidence 3/3)
Track 04 : OK (v2, confidence 2/2)
Track 05 : OK (v2, confidence 3/3)
Track 06 : OK (v2, confidence 3/3)
Track 07 : OK (v2, confidence 3/3)
Track 08 : OK (v2, confidence 3/3)
Track 09 : OK (v2, confidence 3/3)
Track 10 : OK (v2, confidence 3/3)
->All tracks accurately ripped.

All Tracks
Album gain : -10.55 dB
Peak : 0.988617
Statistics
Read error : 0
Jitter error (maybe fixed) : 0
Retry sector count : 0
Damaged sector count : 0

Track 01
Filename : /Volumes/rip/Saor Patrol/Two Headed Dog/01 - Three wee jigs.flac
Pre-gap length : 00:02:00

Track gain : -10.03 dB
Peak : 0.988617
CRC32 hash (test run) : 8F28E312
CRC32 hash : 8F28E312
CRC32 hash (skip zero) : 2BE5E49F
AccurateRip v1 signature : 6861FE9F
AccurateRip v2 signature : 735B1B38
->Accurately ripped (v2, confidence 2/2)
Statistics
Read error : 0
Jitter error (maybe fixed) : 0
Retry sector count : 0
Damaged sector count : 0

Track 02
Filename : /Volumes/rip/Saor Patrol/Two Headed Dog/02 - Men o'Galloway.flac

Track gain : -10.82 dB
Peak : 0.988617
CRC32 hash (test run) : 88719E54
CRC32 hash : 88719E54
CRC32 hash (skip zero) : 0902EDE6
AccurateRip v1 signature : 73078454
AccurateRip v2 signature : C318FEFB
->Accurately ripped (v2, confidence 3/3)
Statistics
Read error : 0
Jitter error (maybe fixed) : 0
Retry sector count : 0
Damaged sector count : 0

Track 03
Filename : /Volumes/rip/Saor Patrol/Two Headed Dog/03 - O'Rourke.flac

Track gain : -11.32 dB
Peak : 0.988617
CRC32 hash (test run) : 10630EDE
CRC32 hash : 10630EDE
CRC32 hash (skip zero) : B7D86594
AccurateRip v1 signature : 16E9DA54
AccurateRip v2 signature : 41C79DD0
->Accurately ripped (v2, confidence 3/3)
Statistics
Read error : 0
Jitter error (maybe fixed) : 0
Retry sector count : 0
Damaged sector count : 0

Track 04
Filename : /Volumes/rip/Saor Patrol/Two Headed Dog/04 - Toomtabard.flac

Track gain : -9.97 dB
Peak : 0.988617
CRC32 hash (test run) : FDC1F2A9
CRC32 hash : FDC1F2A9
CRC32 hash (skip zero) : ED673632
AccurateRip v1 signature : 296F9B5A
AccurateRip v2 signature : CFB1CC78
->Accurately ripped (v2, confidence 2/2)
Statistics
Read error : 0
Jitter error (maybe fixed) : 0
Retry sector count : 0
Damaged sector count : 0

Track 05
Filename : /Volumes/rip/Saor Patrol/Two Headed Dog/05 - Duncarron.flac

Track gain : -9.59 dB
Peak : 0.988617
CRC32 hash (test run) : 6E7B514B
CRC32 hash : 6E7B514B
CRC32 hash (skip zero) : EE4F4D02
AccurateRip v1 signature : 42CC4DDB
AccurateRip v2 signature : 12F4F54A
->Accurately ripped (v2, confidence 3/3)
Statistics
Read error : 0
Jitter error (maybe fixed) : 0
Retry sector count : 0
Damaged sector count : 0

Track 06
Filename : /Volumes/rip/Saor Patrol/Two Headed Dog/06 - Chamalihitchin.flac

Track gain : -9.14 dB
Peak : 0.988617
CRC32 hash (test run) : 7F885B68
CRC32 hash : 7F885B68
CRC32 hash (skip zero) : 27795D17
AccurateRip v1 signature : 7CD5BEA8
AccurateRip v2 signature : C285AC45
->Accurately ripped (v2, confidence 3/3)
Statistics
Read error : 0
Jitter error (maybe fixed) : 0
Retry sector count : 0
Damaged sector count : 0

Track 07
Filename : /Volumes/rip/Saor Patrol/Two Headed Dog/07 - Laird o'Glencairn.flac

Track gain : -10.90 dB
Peak : 0.988617
CRC32 hash (test run) : 23DA50AF
CRC32 hash : 23DA50AF
CRC32 hash (skip zero) : B06DF690
AccurateRip v1 signature : B8537C11
AccurateRip v2 signature : 4C1A25B5
->Accurately ripped (v2, confidence 3/3)
Statistics
Read error : 0
Jitter error (maybe fixed) : 0
Retry sector count : 0
Damaged sector count : 0

Track 08
Filename : /Volumes/rip/Saor Patrol/Two Headed Dog/08 - Badholly.flac

Track gain : -9.39 dB
Peak : 0.988617
CRC32 hash (test run) : 4C53D034
CRC32 hash : 4C53D034
CRC32 hash (skip zero) : 6F0E5A5F
AccurateRip v1 signature : 40294E31
AccurateRip v2 signature : F05B630F
->Accurately ripped (v2, confidence 3/3)
Statistics
Read error : 0
Jitter error (maybe fixed) : 0
Retry sector count : 0
Damaged sector count : 0

Track 09
Filename : /Volumes/rip/Saor Patrol/Two Headed Dog/09 - The Irish.flac

Track gain : -11.11 dB
Peak : 0.988617
CRC32 hash (test run) : A7A7DC43
CRC32 hash : A7A7DC43
CRC32 hash (skip zero) : 54761D4E
AccurateRip v1 signature : 96E9B339
AccurateRip v2 signature : B61C5508
->Accurately ripped (v2, confidence 3/3)
Statistics
Read error : 0
Jitter error (maybe fixed) : 0
Retry sector count : 0
Damaged sector count : 0

Track 10
Filename : /Volumes/rip/Saor Patrol/Two Headed Dog/10 - Crammin' At The Brig.flac

Track gain : -9.54 dB
Peak : 0.988617
CRC32 hash (test run) : AB91BA0D
CRC32 hash : AB91BA0D
CRC32 hash (skip zero) : E7B9FBD4
AccurateRip v1 signature : 953DD1B8
AccurateRip v2 signature : 10B3E047
->Accurately ripped (v2, confidence 3/3)
Statistics
Read error : 0
Jitter error (maybe fixed) : 0
Retry sector count : 0
Damaged sector count : 0

No errors occurred

End of status report

––-BEGIN XLD SIGNATURE––-
CJpOSRNNe.YdKUsZsefavlkAm.YtYD4DFI_vkwf7kFXLQx1atO9QbVDi3QkIGSFsUVhi718zUqgbiWrHX2RE9cu6.97jhSWZ0SEL.Ry
––-END XLD SIGNATURE––-


Saor Patrol - Two Headed Dog (2012) {Madman Records MAMA031}


see more Saor Patrol…


===