Subcategories

Sarah Vaughan - Autour De Minuit (1990)

Posted By: Bezz
Sarah Vaughan - Autour De Minuit (1990)

Sarah Vaughan - Autour De Minuit (1990)
EAC rip | FLAC + CUE + LOG | Full Scans | 280 Mb (Incl. Recovery)
Genre ~ Cool, Standards, Vocal Jazz | Label ~ PolyGram S.A. France

Possessor of one of the most wondrous voices of the 20th century, Sarah Vaughan ranked with Ella Fitzgerald and Billie Holiday in the very top echelon of female jazz singers. She often gave the impression that with her wide range, perfectly controlled vibrato, and wide expressive abilities, she could do anything she wanted with her voice. Although not all of her many recordings are essential (give Vaughan a weak song and she might strangle it to death), Sarah Vaughan's legacy as a performer and a recording artist will be very difficult to match in the future.

Vaughan sang in church as a child and had extensive piano lessons from 1931-39; she developed into a capable keyboardist. After she won an amateur contest at the Apollo Theater, she was hired for the Earl Hines big band as a singer and second vocalist. Unfortunately, the musicians' recording strike kept her off record during this period (1943-44). When lifelong friend Billy Eckstine broke away to form his own orchestra, Vaughan joined him, making her recording debut. She loved being with Eckstine's orchestra, where she became influenced by a couple of his sidemen, Charlie Parker and Dizzy Gillespie, both of whom had also been with Hines during her stint. Vaughan was one of the first singers to fully incorporate bop phrasing in her singing, and to have the vocal chops to pull it off on the level of a Parker and Gillespie.

Other than a few months with John Kirby from 1945-46, Sarah Vaughan spent the remainder of her career as a solo star. Although she looked a bit awkward in 1945 (her first husband George Treadwell would greatly assist her with her appearance), there was no denying her incredible voice. She made several early sessions for Continental: a December 31, 1944 date highlighted by her vocal version of "A Night in Tunisia," which was called "Interlude," and a May 25, 1945 session for that label that had Gillespie and Parker as sidemen. However, it was her 1946-48 selections for Musicraft (which included "If You Could See Me Now," "Tenderly" and "It's Magic") that found her rapidly gaining maturity and adding bop-oriented phrasing to popular songs. Signed to Columbia where she recorded during 1949-53, "Sassy" continued to build on her popularity. Although some of those sessions were quite commercial, eight classic selections cut with Jimmy Jones' band during May 18-19, 1950 (an octet including Miles Davis) showed that she could sing jazz with the best.

During the 1950s, Vaughan recorded middle-of-the-road pop material with orchestras for Mercury, and jazz dates (including a memorable collaboration with Clifford Brown) for the label's subsidiary, EmArcy. Later record label associations included Roulette (1960-64), back with Mercury (1963-67), and after a surprising four years off records, Mainstream (1971-74). Through the years, Vaughan's voice deepened a bit, but never lost its power, flexibility or range. She was a masterful scat singer and was able to out-swing nearly everyone (except for Ella). Vaughan was with Norman Granz's Pablo label from 1977-82, and only during her last few years did her recording career falter a bit, with only two forgettable efforts after 1982. However, up until near the end, Vaughan remained a world traveler, singing and partying into all hours of the night with her miraculous voice staying in prime form. The majority of her recordings are currently available, including complete sets of the Mercury/Emarcy years, and Sarah Vaughan is as famous today as she was during her most active years.

This compilation was made by PolyGram S.A. France in 1990


Tracklist

01 - April in Paris (06:20)
02 - Lover Man (Oh, Where Can You Be?) (03:15)
03 - I Won't Say I Will But I Won't Say I Won't (03:23)
04 - I'm Glad There Is You (In This World of Ordinary People) (05:08)
05 - Prelude To a Kiss (02:44)
06 - Jim (05:50)
07 - My Man (03:50)
08 - (I'm Afraid) The Masquerade Is Over (03:27)
09 - It's Easy to Remember (02:44)
10 - But Not for Me (03:25)
11 - Darn That Dream (03:50)
12 - I'll Never Smile Again (02:33)
13 - Smoke Gets in Your Eyes (03:58)
14 - September Song (05:44)
15 - Over the Rainbow (03:29)


Exact Audio Copy V1.0 beta 1 from 15. November 2010

EAC extraction logfile from 29. July 2011, 12:16

Sarah Vaughan / Autour de minuit

Used drive : Optiarc DVD RW AD-7530B Adapter: 1 ID: 0

Read mode : Secure
Utilize accurate stream : Yes
Defeat audio cache : Yes
Make use of C2 pointers : No

Read offset correction : 6
Overread into Lead-In and Lead-Out : No
Fill up missing offset samples with silence : Yes
Delete leading and trailing silent blocks : No
Null samples used in CRC calculations : Yes
Used interface : Native Win32 interface for Win NT & 2000
Gap handling : Appended to previous track

Used output format : User Defined Encoder
Selected bitrate : 128 kBit/s
Quality : High
Add ID3 tag : No
Command line compressor : C:\Program Files\FLAC\flac.exe
Additional command line options : -V -8 -T "artist=%a" -T "title=%t" -T "album=%g" -T "date=%y" -T "tracknumber=%n" -T "genre=%m" %s


TOC of the extracted CD

Track | Start | Length | Start sector | End sector
––––––––––––––––––––––––––––-
1 | 0:00.33 | 6:22.05 | 33 | 28687
2 | 6:22.38 | 3:17.65 | 28688 | 43527
3 | 9:40.28 | 3:25.12 | 43528 | 58914
4 | 13:05.40 | 5:10.65 | 58915 | 82229
5 | 18:16.30 | 2:46.55 | 82230 | 94734
6 | 21:03.10 | 5:52.38 | 94735 | 121172
7 | 26:55.48 | 3:52.50 | 121173 | 138622
8 | 30:48.23 | 3:29.07 | 138623 | 154304
9 | 34:17.30 | 2:46.13 | 154305 | 166767
10 | 37:03.43 | 3:26.22 | 166768 | 182239
11 | 40:29.65 | 3:50.38 | 182240 | 199527
12 | 44:20.28 | 2:34.70 | 199528 | 211147
13 | 46:55.23 | 3:59.45 | 211148 | 229117
14 | 50:54.68 | 5:45.50 | 229118 | 255042
15 | 56:40.43 | 3:29.10 | 255043 | 270727


Track 1

Filename D:\EAC\Sarah Vaughan - 1990 - Autour de minuit\01 - April in Paris.wav

Pre-gap length 0:00:02.33

Peak level 77.6 %
Extraction speed 3.0 X
Track quality 100.0 %
Test CRC 5872DF03
Copy CRC 5872DF03
Accurately ripped (confidence 2) [94F7769F]
Copy OK

Track 2

Filename D:\EAC\Sarah Vaughan - 1990 - Autour de minuit\02 - Lover Man (Oh, Where Can You Be_).wav

Pre-gap length 0:00:02.35

Peak level 64.2 %
Extraction speed 3.2 X
Track quality 100.0 %
Test CRC 848B41E0
Copy CRC 848B41E0
Accurately ripped (confidence 2) [068A6F21]
Copy OK

Track 3

Filename D:\EAC\Sarah Vaughan - 1990 - Autour de minuit\03 - I Won't Say I Will But I Won't Say I Won't.wav

Pre-gap length 0:00:02.48

Peak level 87.1 %
Extraction speed 3.4 X
Track quality 100.0 %
Test CRC 916E77FC
Copy CRC 916E77FC
Accurately ripped (confidence 2) [9D124A67]
Copy OK

Track 4

Filename D:\EAC\Sarah Vaughan - 1990 - Autour de minuit\04 - I'm Glad There Is You (In This World of Ordinary People).wav

Pre-gap length 0:00:02.32

Peak level 77.4 %
Extraction speed 3.9 X
Track quality 100.0 %
Test CRC 578F6B5F
Copy CRC 578F6B5F
Accurately ripped (confidence 2) [68841262]
Copy OK

Track 5

Filename D:\EAC\Sarah Vaughan - 1990 - Autour de minuit\05 - Prelude To a Kiss.wav

Pre-gap length 0:00:02.57

Peak level 64.7 %
Extraction speed 3.8 X
Track quality 100.0 %
Test CRC D6AC74BC
Copy CRC D6AC74BC
Accurately ripped (confidence 2) [EA63EF16]
Copy OK

Track 6

Filename D:\EAC\Sarah Vaughan - 1990 - Autour de minuit\06 - Jim.wav

Pre-gap length 0:00:02.27

Peak level 100.0 %
Extraction speed 4.4 X
Track quality 100.0 %
Test CRC 47E1B6F7
Copy CRC 47E1B6F7
Accurately ripped (confidence 2) [3C42D262]
Copy OK

Track 7

Filename D:\EAC\Sarah Vaughan - 1990 - Autour de minuit\07 - My Man.wav

Pre-gap length 0:00:02.65

Peak level 72.1 %
Extraction speed 4.5 X
Track quality 100.0 %
Test CRC 06ADD5B9
Copy CRC 06ADD5B9
Accurately ripped (confidence 2) [527A98A3]
Copy OK

Track 8

Filename D:\EAC\Sarah Vaughan - 1990 - Autour de minuit\08 - (I'm Afraid) The Masquerade Is Over.wav

Pre-gap length 0:00:02.28

Peak level 61.6 %
Extraction speed 4.6 X
Track quality 100.0 %
Test CRC EBDA94A9
Copy CRC EBDA94A9
Accurately ripped (confidence 2) [337D6C82]
Copy OK

Track 9

Filename D:\EAC\Sarah Vaughan - 1990 - Autour de minuit\09 - It's Easy to Remember.wav

Pre-gap length 0:00:01.50

Peak level 87.6 %
Extraction speed 4.5 X
Track quality 100.0 %
Test CRC 5A6B7133
Copy CRC 5A6B7133
Accurately ripped (confidence 2) [129E7966]
Copy OK

Track 10

Filename D:\EAC\Sarah Vaughan - 1990 - Autour de minuit\10 - But Not for Me.wav

Pre-gap length 0:00:01.58

Peak level 87.8 %
Extraction speed 4.8 X
Track quality 100.0 %
Test CRC B6E8B18D
Copy CRC B6E8B18D
Accurately ripped (confidence 2) [72DAEE15]
Copy OK

Track 11

Filename D:\EAC\Sarah Vaughan - 1990 - Autour de minuit\11 - Darn That Dream.wav

Pre-gap length 0:00:01.25

Peak level 70.8 %
Extraction speed 5.0 X
Track quality 100.0 %
Test CRC BC8867C8
Copy CRC BC8867C8
Accurately ripped (confidence 2) [150EA8C4]
Copy OK

Track 12

Filename D:\EAC\Sarah Vaughan - 1990 - Autour de minuit\12 - I'll Never Smile Again.wav

Pre-gap length 0:00:00.40

Peak level 84.7 %
Extraction speed 4.8 X
Track quality 100.0 %
Test CRC 6286FCCA
Copy CRC 6286FCCA
Accurately ripped (confidence 2) [DCEEF0D4]
Copy OK

Track 13

Filename D:\EAC\Sarah Vaughan - 1990 - Autour de minuit\13 - Smoke Gets in Your Eyes.wav

Pre-gap length 0:00:01.43

Peak level 68.5 %
Extraction speed 5.4 X
Track quality 100.0 %
Test CRC 55FAB4C9
Copy CRC 55FAB4C9
Accurately ripped (confidence 2) [9AD29A31]
Copy OK

Track 14

Filename D:\EAC\Sarah Vaughan - 1990 - Autour de minuit\14 - September Song.wav

Pre-gap length 0:00:01.43

Peak level 78.1 %
Extraction speed 5.3 X
Track quality 99.9 %
Test CRC 39582974
Copy CRC 39582974
Accurately ripped (confidence 2) [626CA740]
Copy OK

Track 15

Filename D:\EAC\Sarah Vaughan - 1990 - Autour de minuit\15 - Over the Rainbow.wav

Pre-gap length 0:00:01.60

Peak level 89.8 %
Extraction speed 5.6 X
Track quality 100.0 %
Test CRC 31CA3C15
Copy CRC 31CA3C15
Accurately ripped (confidence 2) [35A2F6D5]
Copy OK


All tracks accurately ripped

No errors occurred

End of status report

==== Log checksum A344AB296D56152FAE7AA8B18C98263B9FC067AA4DDBD170FCC51F82B6BF424A ====



Sarah Vaughan - Autour De Minuit (1990)


Sarah Vaughan - Autour De Minuit (1990)



Special thanks to the original uploader, Kzimir!