Subcategories

Sarah Vaughan - At Mister Kelly's - Complete Version (1957) {Emarcy Japan, 32JD-10080, Early Press rel 1987}

Posted By: ruskaval
Sarah Vaughan - At Mister Kelly's - Complete Version (1957) {Emarcy Japan, 32JD-10080, Early Press rel 1987}

Sarah Vaughan - At Mister Kelly's - Complete Version (1957) {Emarcy Japan, 32JD-10080, Early Press rel 1987}
EAC rip (secure mode) | FLAC (tracks)+CUE+LOG -> 396 Mb | MP3 @320 -> 175 Mb
Full Artwork @ 600 dpi (png) -> 212 Mb | 5% repair rar
© 1957, 1987 Emarcy Japan | 32JD-10080
Jazz / Vocal Jazz

During the mid-'50s, Sarah Vaughan spent most of her time recording songbook standards backed by a large orchestra in florid arrangements, with only the occasional breath of fresh air like her masterpiece, 1954's Sarah Vaughan with Clifford Brown. Four years after that milestone, another landed with the live album At Mister Kelly's. Recorded quite early in the days of the live LP, the album captured Vaughan at her best and most relaxed, stretching out on a set of late-night torch songs and ballads.

With a trio including Jimmy Jones on piano, Roy Haynes on drums, and Richard Davis on bass, Vaughan is simply captivating, easily disproving the notion that, to be entertaining, singers needed inventive arrangements and multiple voices (instrumental or otherwise) behind them. Her unerring sense of rhythm carries her through every song on this set, whether the occasion calls for playfulness and wit ("Thou Swell," "Honeysuckle Rose") or a world-wise melancholia ("Willow Weep for Me"). Her accompanists are a valuable anchor, with Haynes' drumming just as precise as Sassy's vocals and Jones' piano solos adding additional vitality.

Personnel
Sarah Vaughan – vocals
Jimmy Jones – piano
Richard Davis – double bass
Roy Haynes – drums

Tracklist
01 - September in the Rain
02 - Willow Weep for Me
03 - Just One of those Things
04 - Be Anything but Darling Be Mine
05 - Thou Swell
06 - Stairway to the Stars
07 - Honeysuckle Rose
08 - Just a Gigolo
09 - How High the Moon
10 - Dream
11 - I'm Going to Sit Right Down and Write Myself a Letter
12 - It's Got to be Love
13 - Alone
14 - If This Isn't Love
15 - Embraceable You
16 - Lucky in Love
17 - Dancing in the Dark
18 - Poor Butterfly
19 - Sometimes I'm Happy
20 - Cover the Waterfront

Exact Audio Copy V1.0 beta 3 from 29. August 2011

EAC extraction logfile from 2. December 2017, 21:43

Sarah Vaughan / At Mister Kelly's

Used drive : HL-DT-STDVDRAM GU70N Adapter: 0 ID: 0

Read mode : Secure
Utilize accurate stream : Yes
Defeat audio cache : Yes
Make use of C2 pointers : No

Read offset correction : 48
Overread into Lead-In and Lead-Out : No
Fill up missing offset samples with silence : Yes
Delete leading and trailing silent blocks : No
Null samples used in CRC calculations : Yes
Used interface : Native Win32 interface for Win NT & 2000
Gap handling : Appended to previous track

Used output format : User Defined Encoder
Selected bitrate : 128 kBit/s
Quality : High
Add ID3 tag : No
Command line compressor : C:\Program Files (x86)\Exact Audio Copy\Flac\flac.exe
Additional command line options : -8 -V -T "ARTIST=%artist%" -T "TITLE=%title%" -T "ALBUM=%albumtitle%" -T "DATE=%year%" -T "TRACKNUMBER=%tracknr%" -T "TOTALTRACKS=%numtracks%" -T "GENRE=%genre%" -T "ALBUMARTIST=%albumartist%" -T "ALBUM ARTIST=%albumartist%" -T "COMMENT=EAC Secure Mode, Test & Copy, AccurateRip, FLAC -8" %source%


TOC of the extracted CD

Track | Start | Length | Start sector | End sector
––––––––––––––––––––––––––––-
1 | 0:00.00 | 3:42.50 | 0 | 16699
2 | 3:42.50 | 5:13.52 | 16700 | 40226
3 | 8:56.27 | 3:09.73 | 40227 | 54474
4 | 12:06.25 | 4:49.37 | 54475 | 76186
5 | 16:55.62 | 2:56.18 | 76187 | 89404
6 | 19:52.05 | 4:52.00 | 89405 | 111304
7 | 24:44.05 | 3:37.27 | 111305 | 127606
8 | 28:21.32 | 4:15.70 | 127607 | 146801
9 | 32:37.27 | 3:26.08 | 146802 | 162259
10 | 36:03.35 | 4:20.20 | 162260 | 181779
11 | 40:23.55 | 3:16.10 | 181780 | 196489
12 | 43:39.65 | 2:24.32 | 196490 | 207321
13 | 46:04.22 | 5:16.15 | 207322 | 231036
14 | 51:20.37 | 2:24.48 | 231037 | 241884
15 | 53:45.10 | 2:46.47 | 241885 | 254381
16 | 56:31.57 | 2:09.70 | 254382 | 264126
17 | 58:41.52 | 4:00.23 | 264127 | 282149
18 | 62:42.00 | 4:21.10 | 282150 | 301734
19 | 67:03.10 | 3:14.42 | 301735 | 316326
20 | 70:17.52 | 2:52.48 | 316327 | 329274


Track 1

Filename F:\EAC\Sarah Vaughan - At Mister Kelly's (1957) [FLAC] {Emarcy,1 832 791-2, Complete Version}\01 - September in the Rain.wav

Pre-gap length 0:00:02.00

Peak level 99.2 %
Extraction speed 1.3 X
Track quality 100.0 %
Test CRC 50A84C62
Copy CRC 50A84C62
Accurately ripped (confidence 2) [3D2FC1C4] (AR v2)
Copy OK

Track 2

Filename F:\EAC\Sarah Vaughan - At Mister Kelly's (1957) [FLAC] {Emarcy,1 832 791-2, Complete Version}\02 - Willow Weep for Me.wav

Pre-gap length 0:00:09.18

Peak level 99.7 %
Extraction speed 1.3 X
Track quality 99.9 %
Test CRC 3F4ADF4D
Copy CRC 3F4ADF4D
Accurately ripped (confidence 2) [BC3A32A0] (AR v2)
Copy OK

Track 3

Filename F:\EAC\Sarah Vaughan - At Mister Kelly's (1957) [FLAC] {Emarcy,1 832 791-2, Complete Version}\03 - Just One of those Things.wav

Pre-gap length 0:00:06.00

Peak level 98.2 %
Extraction speed 1.5 X
Track quality 100.0 %
Test CRC AD67AF68
Copy CRC AD67AF68
Accurately ripped (confidence 2) [1FACB80F] (AR v2)
Copy OK

Track 4

Filename F:\EAC\Sarah Vaughan - At Mister Kelly's (1957) [FLAC] {Emarcy,1 832 791-2, Complete Version}\04 - Be Anything but Darling Be Mine.wav

Pre-gap length 0:00:02.40

Peak level 88.9 %
Extraction speed 1.5 X
Track quality 99.9 %
Test CRC 3C3AA1D4
Copy CRC 3C3AA1D4
Accurately ripped (confidence 2) [66FDDADC] (AR v2)
Copy OK

Track 5

Filename F:\EAC\Sarah Vaughan - At Mister Kelly's (1957) [FLAC] {Emarcy,1 832 791-2, Complete Version}\05 - Thou Swell.wav

Peak level 99.7 %
Extraction speed 1.7 X
Track quality 100.0 %
Test CRC 123B340A
Copy CRC 123B340A
Accurately ripped (confidence 2) [9364302F] (AR v2)
Copy OK

Track 6

Filename F:\EAC\Sarah Vaughan - At Mister Kelly's (1957) [FLAC] {Emarcy,1 832 791-2, Complete Version}\06 - Stairway to the Stars.wav

Pre-gap length 0:00:13.28

Peak level 95.2 %
Extraction speed 1.9 X
Track quality 100.0 %
Test CRC 3FB762C2
Copy CRC 3FB762C2
Accurately ripped (confidence 2) [CAAC018B] (AR v2)
Copy OK

Track 7

Filename F:\EAC\Sarah Vaughan - At Mister Kelly's (1957) [FLAC] {Emarcy,1 832 791-2, Complete Version}\07 - Honeysuckle Rose.wav

Pre-gap length 0:00:05.10

Peak level 100.0 %
Extraction speed 1.9 X
Track quality 100.0 %
Test CRC 247D87BF
Copy CRC 247D87BF
Accurately ripped (confidence 2) [DE8DF7DF] (AR v2)
Copy OK

Track 8

Filename F:\EAC\Sarah Vaughan - At Mister Kelly's (1957) [FLAC] {Emarcy,1 832 791-2, Complete Version}\08 - Just a Gigolo.wav

Peak level 88.8 %
Extraction speed 1.8 X
Track quality 99.9 %
Test CRC 2CD5FD45
Copy CRC 2CD5FD45
Accurately ripped (confidence 2) [1A7CB1E7] (AR v2)
Copy OK

Track 9

Filename F:\EAC\Sarah Vaughan - At Mister Kelly's (1957) [FLAC] {Emarcy,1 832 791-2, Complete Version}\09 - How High the Moon.wav

Pre-gap length 0:00:04.07

Peak level 100.0 %
Extraction speed 2.1 X
Track quality 100.0 %
Test CRC 160BF571
Copy CRC 160BF571
Accurately ripped (confidence 2) [4248BC4A] (AR v2)
Copy OK

Track 10

Filename F:\EAC\Sarah Vaughan - At Mister Kelly's (1957) [FLAC] {Emarcy,1 832 791-2, Complete Version}\10 - Dream.wav

Pre-gap length 0:00:32.08

Peak level 94.9 %
Extraction speed 1.9 X
Track quality 99.9 %
Test CRC 6BDEC84A
Copy CRC 6BDEC84A
Accurately ripped (confidence 2) [BA9657DB] (AR v2)
Copy OK

Track 11

Filename F:\EAC\Sarah Vaughan - At Mister Kelly's (1957) [FLAC] {Emarcy,1 832 791-2, Complete Version}\11 - I'm Going to Sit Right Down and Write Myself a Letter.wav

Pre-gap length 0:00:26.10

Peak level 95.9 %
Extraction speed 2.2 X
Track quality 100.0 %
Test CRC BE2953B3
Copy CRC BE2953B3
Accurately ripped (confidence 2) [4A49D6A1] (AR v2)
Copy OK

Track 12

Filename F:\EAC\Sarah Vaughan - At Mister Kelly's (1957) [FLAC] {Emarcy,1 832 791-2, Complete Version}\12 - It's Got to be Love.wav

Pre-gap length 0:00:06.53

Peak level 86.2 %
Extraction speed 1.7 X
Track quality 99.9 %
Test CRC B5DB540B
Copy CRC B5DB540B
Accurately ripped (confidence 2) [847A6B24] (AR v2)
Copy OK

Track 13

Filename F:\EAC\Sarah Vaughan - At Mister Kelly's (1957) [FLAC] {Emarcy,1 832 791-2, Complete Version}\13 - Alone.wav

Peak level 86.6 %
Extraction speed 2.4 X
Track quality 100.0 %
Test CRC AEB78A5E
Copy CRC AEB78A5E
Accurately ripped (confidence 2) [FC663D25] (AR v2)
Copy OK

Track 14

Filename F:\EAC\Sarah Vaughan - At Mister Kelly's (1957) [FLAC] {Emarcy,1 832 791-2, Complete Version}\14 - If This Isn't Love.wav

Peak level 88.6 %
Extraction speed 2.2 X
Track quality 100.0 %
Test CRC 3EA4E45D
Copy CRC 3EA4E45D
Accurately ripped (confidence 2) [CBD1CE01] (AR v2)
Copy OK

Track 15

Filename F:\EAC\Sarah Vaughan - At Mister Kelly's (1957) [FLAC] {Emarcy,1 832 791-2, Complete Version}\15 - Embraceable You.wav

Peak level 90.5 %
Extraction speed 1.9 X
Track quality 99.9 %
Test CRC CC0359DE
Copy CRC CC0359DE
Accurately ripped (confidence 2) [0166B432] (AR v2)
Copy OK

Track 16

Filename F:\EAC\Sarah Vaughan - At Mister Kelly's (1957) [FLAC] {Emarcy,1 832 791-2, Complete Version}\16 - Lucky in Love.wav

Peak level 86.6 %
Extraction speed 2.2 X
Track quality 100.0 %
Test CRC 0AABEE3B
Copy CRC 0AABEE3B
Accurately ripped (confidence 2) [F0ED02E6] (AR v2)
Copy OK

Track 17

Filename F:\EAC\Sarah Vaughan - At Mister Kelly's (1957) [FLAC] {Emarcy,1 832 791-2, Complete Version}\17 - Dancing in the Dark.wav

Peak level 62.3 %
Extraction speed 2.5 X
Track quality 100.0 %
Test CRC D5B107CE
Copy CRC D5B107CE
Accurately ripped (confidence 2) [0F4AD13D] (AR v2)
Copy OK

Track 18

Filename F:\EAC\Sarah Vaughan - At Mister Kelly's (1957) [FLAC] {Emarcy,1 832 791-2, Complete Version}\18 - Poor Butterfly.wav

Pre-gap length 0:00:23.53

Peak level 74.7 %
Extraction speed 2.6 X
Track quality 100.0 %
Test CRC 6ABE70E8
Copy CRC 6ABE70E8
Accurately ripped (confidence 2) [FB5ABC56] (AR v2)
Copy OK

Track 19

Filename F:\EAC\Sarah Vaughan - At Mister Kelly's (1957) [FLAC] {Emarcy,1 832 791-2, Complete Version}\19 - Sometimes I'm Happy.wav

Peak level 100.0 %
Extraction speed 2.2 X
Track quality 99.9 %
Test CRC BC443309
Copy CRC BC443309
Accurately ripped (confidence 2) [8E4184F8] (AR v2)
Copy OK

Track 20

Filename F:\EAC\Sarah Vaughan - At Mister Kelly's (1957) [FLAC] {Emarcy,1 832 791-2, Complete Version}\20 - Cover the Waterfront.wav

Pre-gap length 0:01:14.65

Peak level 90.3 %
Extraction speed 2.2 X
Track quality 99.9 %
Test CRC 12875831
Copy CRC 12875831
Accurately ripped (confidence 2) [5BB7141C] (AR v2)
Copy OK


All tracks accurately ripped

No errors occurred

End of status report

–– CUETools DB Plugin V2.1.3

[CTDB TOCID: ohE_SRHDHYKv5Oe2y0wujgX1wfw-] found, Submit result: ohE_SRHDHYKv5Oe2y0wujgX1wfw- has been confirmed
[8d473d12] (10/12) Accurately ripped
[7aab40ed] (01/12) No match
[54010704] (01/12) No match


==== Log checksum 033E7C395C3A0D5645B5FD6CCBC9F9573DAC8BAB4ADAB65E2E57F9D55820E69B ====


Sarah Vaughan - At Mister Kelly's - Complete Version (1957) {Emarcy Japan, 32JD-10080, Early Press rel 1987}

Sarah Vaughan - At Mister Kelly's - Complete Version (1957) {Emarcy Japan, 32JD-10080, Early Press rel 1987}



===